Ссылка на приватное зеркало всего за 1$. Внимание количество ограничено!!!

iTunes

iTunes

iTunes

1

iTunes

iTunes

iTunes

iTunes

iTunes

30
pack

$ от Little Big

ВАЖНО

!!Акция!!

Alien_RageХит недели

RePack

Resident Evil 21

ИГРА 18+

pack

RePack

jed

!!Акция!!

Alien_Rage

RePack

fifa19

RePack

Assassins Creed: Odyssey

RePack

NEED FOR SPEED™ PAYBACK

4 сезон

9 сезон

Бесстыжие 9 сезон

Все сериалы

все сериалы на PB.wtf

RePack

FAR CRY 5
  

План побега / Escape Plan (Микаэль Хофстрём) [2013 г., боевик, триллер, детектив, WEB-DL 720p, Дубляж (Ukrainian)] pb.wtf

План побега через торрент pb.wtf

Размер: 4.07 GB | Добавлен: 6 лет 5 мес. назад | Торрент скачан:68 раз
Скачать  

22-01-2014 04:10 План побега Скачать торрент  

План побега / Escape Plan

Год выпуска: 2013
Страна: США
Жанр: боевик, триллер, детектив
Продолжительность: 01:55:35
Перевод: Дубляж (Ukrainian)
Субтитры: English

Режиссер: Микаэль Хофстрём
Продюссер: Брандт Андерсон, Александр Буайе, Робби Бреннер
Сценарий: Майлз Чэпман, Джейсон Келлер
Бюджет: $50 000 000
Премьера в мире: 18 июля 2013

IMDB 7.00 (35 906)


В ролях: Сильвестр Сталлоне, Арнольд Шварценеггер, Джеймс Кэвизел, Фифти Сент, Винни Джонс, Винсент Д’Онофрио, Эми Райан, Фаран Таир, Сэм Нил, Мэтт Джералд

Описание: Один из самых выдающихся мировых специалистов по системам безопасности соглашается на последнюю рисковую операцию: сбежать из суперсекретной высокотехнологичной тюрьмы, которую называют «Гробницей». Преданный Рэй Бреслин вынужден прибегнуть к помощи напарника — заключенного Эмиля Ротмайера, чтобы разработать отчаянный и практически неосуществимый план побега из самой защищенной тюрьмы в мире!



Качество: WEB-DL 720p
Формат: MKV
Видео кодек: AVC
Аудио кодек: AC3
Видео: 1280x532, 23.976 fps, MPEG-4 AVC, 4 169 Kbps, Bits/(Pixel*Frame): 0.255
Аудио#1: Ukrainian: 48 kHz, AC3, 3/2 (L,C,R,l,r) + LFE ch, ~384.00 kbps avg |Дубляж, Интерфильм|
Аудио#2: English: 48 kHz, AC3, 3/2 (L,C,R,l,r) + LFE ch, ~384.00 kbps avg |iTunes US|
General
Unique ID : 204826501263231810892394755402084716378 (0x9A182633323D960FBA5DA571E01D0F5A)
Complete name : /etc/seedbox/home/kep/data/Escape.Plan.2013.720p.WEB-DL.Ukr.Eng.HDCLUB.mkv
Format : Matroska
Format version : Version 2
File size : 4.07 GiB
Duration : 1h 55mn
Overall bit rate : 5 037 Kbps
Movie name : Escape Plan (2013) - Release for HDCLUB
Encoded date : UTC 2014-01-21 20:31:40
Writing application : mkvmerge v3.4.0 ('Rapunzel') built on May 15 2010 09:38:20
Writing library : libebml v0.8.0 + libmatroska v0.9.0

Video
ID : 1
Format : AVC
Format/Info : Advanced Video Codec
Format profile : Main@L3.1
Format settings, CABAC : No
Format settings, ReFrames : 2 frames
Codec ID : V_MPEG4/ISO/AVC
Duration : 1h 55mn
Bit rate : 4 169 Kbps
Width : 1 280 pixels
Height : 532 pixels
Display aspect ratio : 2.40:1
Frame rate mode : Constant
Frame rate : 23.976 fps
Color space : YUV
Chroma subsampling : 4:2:0
Bit depth : 8 bits
Scan type : Progressive
Bits/(Pixel*Frame) : 0.255
Stream size : 3.37 GiB (83%)
Title : Escape Plan (2013) - Release for HDCLUB
Language : English
Default : Yes
Forced : No
Color primaries : BT.709
Transfer characteristics : BT.709
Matrix coefficients : BT.709

Audio #1
ID : 2
Format : AC-3
Format/Info : Audio Coding 3
Mode extension : CM (complete main)
Format settings, Endianness : Big
Codec ID : A_AC3
Duration : 1h 55mn
Bit rate mode : Constant
Bit rate : 384 Kbps
Channel count : 6 channels
Channel positions : Front: L C R, Side: L R, LFE
Sampling rate : 48.0 KHz
Bit depth : 16 bits
Compression mode : Lossy
Stream size : 318 MiB (8%)
Title : AC3 5.1 @ 384 kbps - DUB
Language : Ukrainian
Default : Yes
Forced : No

Audio #2
ID : 3
Format : AC-3
Format/Info : Audio Coding 3
Mode extension : CM (complete main)
Format settings, Endianness : Big
Codec ID : A_AC3
Duration : 1h 55mn
Bit rate mode : Constant
Bit rate : 384 Kbps
Channel count : 6 channels
Channel positions : Front: L C R, Side: L R, LFE
Sampling rate : 48.0 KHz
Bit depth : 16 bits
Compression mode : Lossy
Stream size : 318 MiB (8%)
Title : AC3 5.1 @ 384 kbps - DUB
Language : English
Default : No
Forced : No

Text
ID : 4
Format : UTF-8
Codec ID : S_TEXT/UTF8
Codec ID/Info : UTF-8 Plain Text
Language : English
Default : No
Forced : No

Menu
00:00:00.000 : en:Chapter 1
00:06:33.000 : en:Chapter 2
00:15:41.000 : en:Chapter 3
00:19:50.000 : en:Chapter 4
00:26:22.000 : en:Chapter 5
00:33:08.000 : en:Chapter 6
00:39:14.000 : en:Chapter 7
00:45:41.000 : en:Chapter 8
00:50:07.000 : en:Chapter 9
00:58:59.000 : en:Chapter 10
01:06:45.000 : en:Chapter 11
01:13:50.000 : en:Chapter 12
01:21:04.000 : en:Chapter 13
01:27:58.000 : en:Chapter 14
01:35:35.000 : en:Chapter 15
01:42:12.000 : en:Chapter 16

pb.wtf



Скачать План побега через торрент http://i6.imageban.ru/out/2014/01/22/0e5353406dd15634f7adffef6b55956a.png Скачать фильм План побега через торрент бесплантно в хорошем качестве Описание: Один из самых выдающихся мировых специалистов по системам безопасности соглашается на последнюю рисковую операцию: сбежать из ... 10 10 3
× Info от релизера! План побега / Escape Plan
Info! Золотая раздача, скачанное не засчитывается.
Торрент: Зарегистрирован [2014-01-22 04:10] · скачан: 68 раз
Статус: √ проверено
Размер: 4.07 GB
Как cкачать? Как скачать План побега через торрент | qTorrent

% Раздел Тема Автор DL S | L
Фильмы 2019-2020 [DVDrip, WEB-DLRip, HDrip] (DUB, MVO) [ 1.42 GB ] План побега 3 / Escape Plan: The Extractors [2019 BDRip] - Twi7ter Скачать
55 | 2
Ultra HD (UHD: 2K, 4K, 8K) — видео сверхвысокой чёткости [ 23.45 GB ] План побега 2 / Escape Plan 2: Hades [2018 UHD WEBRip 2160p] MVO [HDRezka Studio] + bober100 Скачать
1 | 0
Фильмы 2019-2020 [DVDrip, WEB-DLRip, HDrip] (DUB, MVO) [ 1.42 GB ] План побега 3 / Escape Plan: The Extractors [2019 BDRip] [Расширенная версия] bober100 Скачать
8 | 0
Фильмы 2019-2020 [DVDrip, WEB-DLRip, HDrip] (DUB, MVO) [ 746 MB ] План побега 3 / Escape Plan: The Extractors [2019 BDRip] [Расширенная версия] bober100 Скачать
1 | 0
Фильмы (Blu-ray, BD-Remux, HDDVD) [ 24.67 GB ] План побега 3 / Escape Plan: The Extractors [2019 BD Remux 1080p] [Extended Cut] bober100 Скачать
1 | 0
Ultra HD (UHD: 2K, 4K, 8K) — видео сверхвысокой чёткости [ 56.23 GB ] План побега / Escape Plan [2013 UHD BDRemux 2160p] DUB [Dolby Vision TV] sheker187 Скачать
1 | 0
Фильмы [HD 720p, 1080p] (Хороший звук DUB, MVO) [ 9.22 GB ] План побега 3 / Escape Plan: The Extractors [2019 BDRip 1080p] [Расширенная версия] bober100 Скачать
2 | 0

28-11-2019 20:33  

Отключить всю рекламу на сайте

    Дорогой пользователь! Огромная просьба, поблагодарите релизера, оцените раздачу и оставьте свои комментарий, если Вы скачали План побега через торрент бесплатно! Внесите свою лепту в развитие PiratBit!
    Комментировать посты могут только пользователи прошедшие не сложную регистрацию
    Показать сообщения:    

    План побега через торрент
    Скачать бесплатно План побега
    План побега скачать торрент
    План побега смотреть онлайн
    Cкачать фильм План побега бесплатно
    План побега скачать торрент в хорошем качестве
    План побега смотреть онлайн бесплатно в хорошем качестве


    Вы не можете начинать темы
    Вы не можете отвечать на сообщения
    Вы не можете редактировать свои сообщения
    Вы не можете удалять свои сообщения
    Вы не можете голосовать в опросах
    Вы не можете прикреплять файлы к сообщениям
    Вы можете скачивать файлы