Ссылка на приватное зеркало нашего сайта всего за 1$. Внимание количество ограничено!!!

2 сезон

iTunes

1 сезон

1

2 сезон

2 сезон

iTunes

1 сезон

RePack

30

Новинка

ВАЖНО

ИГРА 18+

pack

RePack

MK11
pack

Забери бонус

RePack

jed

!!Акция!!

Alien_Rage

RePack

fifa19

RePack

Assassins Creed: Odyssey

RePack

NEED FOR SPEED™ PAYBACK

4 сезон

9 сезон

Бесстыжие 9 сезон

Все сериалы

все сериалы на PB.wtf

RePack

FAR CRY 5
  

План побега / Escape Plan (Микаэль Хофстрём) [2013 г., боевик, триллер, детектив, BD-Remux, DUB, MVO] pb.wtf

План побега через торрент pb.wtf

Размер: 27.92 GB | Добавлен: 6 лет 10 мес. назад | Торрент скачан:235 раз
Скачать  

25-01-2014 00:38 План побега Скачать торрент  

План побега / Escape Plan

Год выпуска: 2013
Страна: США
Жанр: боевик, триллер, детектив
Продолжительность: 01:55:35
Перевод: Дубляж, Профессиональный многоголосый

Режиссер: Микаэль Хофстрём
Продюссер: Брандт Андерсон, Александр Буайе, Робби Бреннер
Сценарий: Майлз Чэпман, Джейсон Келлер
Бюджет: $50 000 000
Премьера в мире: 18 июля 2013

IMDB 7.00 (35 906)


В ролях: Сильвестр Сталлоне, Арнольд Шварценеггер, Джеймс Кэвизел, Фифти Сент, Винни Джонс, Винсент Д’Онофрио, Эми Райан, Фаран Таир, Сэм Нил, Мэтт Джералд

Описание: Один из самых выдающихся мировых специалистов по системам безопасности соглашается на последнюю рисковую операцию: сбежать из суперсекретной высокотехнологичной тюрьмы, которую называют «Гробницей». Преданный Рэй Бреслин вынужден прибегнуть к помощи напарника — заключенного Эмиля Ротмайера, чтобы разработать отчаянный и практически неосуществимый план побега из самой защищенной тюрьмы в мире!

Качество: Blu-Ray Remux (1080p)
Формат: MKV
Видео кодек: AVC
Аудио кодек: AC3 / DTS-HD
Видео: MPEG-4 AVC, 31.8 Мбит/с, 1920x1080, 23.976 кадр/с, Бит/(Пиксели*Кадры): 0.640
Аудио#1: Russian: AC3, 6 ch, 384 Кбит/с, 48,0 КГц |Дубляж, iTunes Russia|
Аудио#2: Russian: AC3, 2 ch, 192 Кбит/с, 48,0 КГц |MVO|
Аудио#3: English: DTS-HD MA, 6 ch, 5042 Кбит/с, 48,0 КГц

General
Unique ID : 246370710209217125933121886942315305317 (0xB95945D79C00B0F89F156A8E600A5965)
Complete name : /etc/seedbox/home/kep/data/Escape.Plan.2013.BluRay.Remux.mkv
Format : Matroska
Format version : Version 2
File size : 27.9 GiB
Duration : 1h 55mn
Overall bit rate mode : Variable
Overall bit rate : 34.6 Mbps
Encoded date : UTC 2014-01-25 00:04:27
Writing application : mkvmerge v6.7.0 ('Back to the Ground') 32bit built on Jan 8 2014 15:03:17
Writing library : libebml v1.3.0 + libmatroska v1.4.1

Video
ID : 1
Format : AVC
Format/Info : Advanced Video Codec
Format profile : High@L4.1
Format settings, CABAC : Yes
Format settings, ReFrames : 4 frames
Codec ID : V_MPEG4/ISO/AVC
Duration : 1h 55mn
Bit rate mode : Variable
Bit rate : 31.8 Mbps
Maximum bit rate : 37.0 Mbps
Width : 1 920 pixels
Height : 1 080 pixels
Display aspect ratio : 16:9
Frame rate mode : Constant
Frame rate : 23.976 fps
Color space : YUV
Chroma subsampling : 4:2:0
Bit depth : 8 bits
Scan type : Progressive
Bits/(Pixel*Frame) : 0.640
Stream size : 25.7 GiB (92%)
Default : No
Forced : No

Audio #1
ID : 2
Format : AC-3
Format/Info : Audio Coding 3
Mode extension : CM (complete main)
Format settings, Endianness : Big
Codec ID : A_AC3
Duration : 1h 55mn
Bit rate mode : Constant
Bit rate : 384 Kbps
Channel count : 6 channels
Channel positions : Front: L C R, Side: L R, LFE
Sampling rate : 48.0 KHz
Bit depth : 16 bits
Compression mode : Lossy
Stream size : 317 MiB (1%)
Language : Russian
Default : Yes
Forced : No

Audio #2
ID : 3
Format : AC-3
Format/Info : Audio Coding 3
Mode extension : CM (complete main)
Format settings, Endianness : Big
Codec ID : A_AC3
Duration : 1h 55mn
Bit rate mode : Constant
Bit rate : 192 Kbps
Channel count : 2 channels
Channel positions : Front: L R
Sampling rate : 48.0 KHz
Bit depth : 16 bits
Compression mode : Lossy
Stream size : 159 MiB (1%)
Default : No
Forced : No

Audio #3
ID : 4
Format : DTS
Format/Info : Digital Theater Systems
Mode : 16
Format settings, Endianness : Big
Codec ID : A_DTS
Duration : 1h 55mn
Bit rate mode : Constant
Bit rate : 1 509 Kbps
Channel count : 6 channels
Channel positions : Front: L C R, Side: L R, LFE
Sampling rate : 48.0 KHz
Bit depth : 24 bits
Compression mode : Lossy
Stream size : 1.22 GiB (4%)
Language : English
Default : No
Forced : No

Menu
00:00:00.000 : en:00:00:00.000
00:06:33.643 : en:00:06:33.643
00:17:47.441 : en:00:17:47.441
00:24:19.708 : en:00:24:19.708
00:36:30.396 : en:00:36:30.396
00:40:55.869 : en:00:40:55.869
00:49:48.193 : en:00:49:48.193
00:57:33.533 : en:00:57:33.533
01:04:39.834 : en:01:04:39.834
01:11:53.058 : en:01:11:53.058
01:18:47.222 : en:01:18:47.222
01:26:23.886 : en:01:26:23.886
01:33:03.577 : en:01:33:03.577
pb.wtf



Скачать План побега через торрент http://i6.imageban.ru/out/2014/01/22/0e5353406dd15634f7adffef6b55956a.png Скачать фильм План побега через торрент бесплантно в хорошем качестве Описание: Один из самых выдающихся мировых специалистов по системам безопасности соглашается на последнюю рисковую операцию: сбежать из ... 10 10 9
Info! Золотая раздача, скачанное не засчитывается.
Торрент: Зарегистрирован [2014-01-25 03:54] · скачан: 235 раз
Статус: √ проверено
Размер: 27.92 GB
Как cкачать? Как скачать План побега через торрент | qTorrent

% Раздел Тема Автор DL S | L
Фильмы 2019-2020 [DVDrip, WEB-DLRip, HDrip] (DUB, MVO) [ 1.42 GB ] План побега 3 / Escape Plan: The Extractors [2019 BDRip] - Twi7ter Скачать
17 | 0
Ultra HD (UHD: 2K, 4K, 8K) — видео сверхвысокой чёткости [ 23.45 GB ] План побега 2 / Escape Plan 2: Hades [2018 UHD WEBRip 2160p] MVO [HDRezka Studio] + bober100 Скачать
1 | 0
Фильмы 2019-2020 [DVDrip, WEB-DLRip, HDrip] (DUB, MVO) [ 1.42 GB ] План побега 3 / Escape Plan: The Extractors [2019 BDRip] [Расширенная версия] bober100 Скачать
3 | 0
Фильмы 2019-2020 [DVDrip, WEB-DLRip, HDrip] (DUB, MVO) [ 746 MB ] План побега 3 / Escape Plan: The Extractors [2019 BDRip] [Расширенная версия] bober100 Скачать
1 | 0
Фильмы (Blu-ray, BD-Remux, HDDVD) [ 24.67 GB ] План побега 3 / Escape Plan: The Extractors [2019 BD Remux 1080p] [Extended Cut] bober100 Скачать
1 | 0
Ultra HD (UHD: 2K, 4K, 8K) — видео сверхвысокой чёткости [ 56.23 GB ] План побега / Escape Plan [2013 UHD BDRemux 2160p] DUB [Dolby Vision TV] sheker187 Скачать
1 | 0
Фильмы [HD 720p, 1080p] (Хороший звук DUB, MVO) [ 9.22 GB ] План побега 3 / Escape Plan: The Extractors [2019 BDRip 1080p] [Расширенная версия] bober100 Скачать
1 | 0

28-11-2019 20:33  

Отключить всю рекламу на сайте

    Дорогой пользователь! Огромная просьба, поблагодарите релизера, оцените раздачу и оставьте свои комментарий, если Вы скачали План побега через торрент бесплатно! Внесите свою лепту в развитие PiratBit!
    Комментировать посты могут только пользователи прошедшие не сложную регистрацию
    Показать сообщения:    

    План побега через торрент
    Скачать бесплатно План побега
    План побега скачать торрент
    План побега смотреть онлайн
    Cкачать фильм План побега бесплатно
    План побега скачать торрент в хорошем качестве
    План побега смотреть онлайн бесплатно в хорошем качестве


    Вы не можете начинать темы
    Вы не можете отвечать на сообщения
    Вы не можете редактировать свои сообщения
    Вы не можете удалять свои сообщения
    Вы не можете голосовать в опросах
    Вы не можете прикреплять файлы к сообщениям
    Вы можете скачивать файлы