Ссылка на приватное зеркало нашего сайта всего за 1$. Внимание количество ограничено!!!

2 сезон

iTunes

1 сезон

1

iTunes

iTunes

iTunes

1 сезон

RePack

30

ИГРА 18+

pack

ВАЖНО

!!Акция!!

Alien_RageХит недели

RePack

MK11
pack

Забери бонус

RePack

jed

!!Акция!!

Alien_Rage

RePack

fifa19

RePack

Assassins Creed: Odyssey

RePack

NEED FOR SPEED™ PAYBACK

4 сезон

9 сезон

Бесстыжие 9 сезон

Все сериалы

все сериалы на PB.wtf

RePack

FAR CRY 5
  

Starперцы / Last Vegas (Джон Тёртелтауб / Jon Turteltaub) [2013, США, комедия, драма, BDRip 1080p,Профессиональный (многоголосый, закадровый) [Baibako] pb.wtf

Starперцы через торрент pb.wtf

Размер: 8.71 GB | Добавлен: 6 лет 7 мес. назад | Торрент скачан:203 раза
Скачать  

17-01-2014 04:50 Starперцы Скачать торрент  


Starперцы / Last Vegas

«Мы - легенда»

Год выпуска:2013
Страна:США
Жанр:комедия, драма

Продолжительность: 01:44:59
Перевод:Профессиональный (многоголосый, закадровый) [Baibako]

Субтитры: Нет
Режиссер:Джон Тёртелтауб / Jon Turteltaub
В ролях:Майкл Дуглас (Billy), Роберт Де Ниро (Paddy), Морган Фриман (Archie), Кевин Клайн (Sam), Мэри Стинберген (Diana), Джерри Феррара (Dean), Романи Малко (Lonnie), Роджер Барт (Maurice), Джоанна Глисон (Miriam), Майкл Или (Ezra), Бри Блэр (Lisa), Эйприл Биллингсли (Maid of Honor)
  • Описание:
    Билли, Пэдди, Арчи и Сэм дружат больше полувека. И когда убежденный холостяк Билли наконец-то делает предложение своей юной подружке, великолепная четверка отправляется в Лас-Вегас, чтобы скинуть с себя груз прожитого и зажечь как в последний раз. Великовозрастные гуляки и не подозревают, как за десятилетия эволюционировал Город Грехов...

    Качество:BDRip 1080p
    Формат:MKV
    Видео кодек:AVC
    Аудио кодек:AC3
    Видео: AVC, 1920x800 (2.40:1), 11430 kbps, 23,976 fps, 0,310 bpp
    Аудио: русский / AC3 / 5.1 / 48 kHz / 448 kbps / 16 bit ||

Код:

General
Unique ID                                : 243097267358131684755180913382504733667 (0xB6E2D4A6288281B78D7FAD595DBB1BE3)
Complete name                            : D:ТорентыStarPertsi.2013.Dt.BDRip..1080p._Piratbit.net.mkv
Format                                   : Matroska
Format version                           : Version 4 / Version 2
File size                                : 8.71 GiB
Duration                                 : 1h 44mn
Overall bit rate                         : 11.9 Mbps
Movie name                               : Release for Piratbit.net_R.G. HD-Films
Encoded date                             : UTC 2014-01-17 04:16:49
Writing application                      : mkvmerge v6.4.1 ('Omega Point') built on Sep 16 2013 22:05:10
Writing library                          : libebml v1.3.0 + libmatroska v1.4.1

Video
ID                                       : 1
Format                                   : AVC
Format/Info                              : Advanced Video Codec
Format profile                           : High@L4.1
Format settings, CABAC                   : Yes
Format settings, ReFrames                : 5 frames
Codec ID                                 : V_MPEG4/ISO/AVC
Duration                                 : 1h 44mn
Bit rate                                 : 11.4 Mbps
Width                                    : 1 920 pixels
Height                                   : 800 pixels
Display aspect ratio                     : 2.40:1
Frame rate                               : 23.976 fps
Color space                              : YUV
Chroma subsampling                       : 4:2:0
Bit depth                                : 8 bits
Scan type                                : Progressive
Bits/(Pixel*Frame)                       : 0.310
Stream size                              : 8.21 GiB (94%)
Title                                    : Release for Piratbit.net_R.G. HD-Films
Writing library                          : x264 core 138 r2356 a1d3d17
Encoding settings                        : cabac=1 / ref=5 / deblock=1:-3:-3 / analyse=0x3:0x113 / me=umh / subme=10 / psy=1 / psy_rd=1.00:0.05 / mixed_ref=1 / me_range=32 / chroma_me=1 / trellis=2 / 8x8dct=1 / cqm=0 / deadzone=21,11 / fast_pskip=0 / chroma_qp_offset=-2 / threads=18 / lookahead_threads=1 / sliced_threads=0 / nr=0 / decimate=1 / interlaced=0 / bluray_compat=0 / constrained_intra=0 / bframes=6 / b_pyramid=2 / b_adapt=2 / b_bias=0 / direct=3 / weightb=1 / open_gop=0 / weightp=2 / keyint=250 / keyint_min=23 / scenecut=40 / intra_refresh=0 / rc=2pass / mbtree=0 / bitrate=11430 / ratetol=1.0 / qcomp=0.70 / qpmin=0 / qpmax=69 / qpstep=4 / cplxblur=20.0 / qblur=0.5 / ip_ratio=1.40 / pb_ratio=1.30 / aq=2:1.00
Language                                 : English
Default                                  : Yes
Forced                                   : No

Audio
ID                                       : 2
Format                                   : AC-3
Format/Info                              : Audio Coding 3
Mode extension                           : CM (complete main)
Codec ID                                 : A_AC3
Duration                                 : 1h 44mn
Bit rate mode                            : Constant
Bit rate                                 : 448 Kbps
Channel(s)                               : 6 channels
Channel positions                        : Front: L C R, Side: L R, LFE
Sampling rate                            : 48.0 KHz
Bit depth                                : 16 bits
Compression mode                         : Lossy
Stream size                              : 336 MiB (4%)
Language                                 : Russian
Default                                  : Yes
Forced                                   : No


Скриншоты:

Релиз подготовлен специально для Piratbit.net. Синхронизация звука и видео by Vetal

Трейлеры к фильмам [2014]
pb.wtf



Скачать Starперцы через торрент http://pic.kartinco.top/images/6/ordi9.jpg Скачать фильм Starперцы через торрент бесплантно в хорошем качестве Описание:Билли, Пэдди, Арчи и Сэм дружат больше полувека. И когда убежденный холостяк Билли наконец-то делает предложение своей юной ... 9.1 10 26
Торрент: Зарегистрирован [2014-03-04 16:55] · скачан: 203 раз
Статус: √ проверено
Размер: 8.71 GB
Как cкачать? Как скачать Starперцы через торрент | qTorrent

% Раздел Тема Автор DL S | L
Фильмы (DVD фильмы) [ 4.7 GB ] Starперцы / Last Vegas [2013 DVD9] R5 voovaz Скачать
1 | 0
Фильмы 2013 [DVDrip, WEB-DLRip, HDrip] [ 1.42 GB ] Starперцы / Last Vegas [2013 BDRip-AVC] DUB potroks Скачать
1 | 0
Фильмы 2013 [DVDrip, WEB-DLRip, HDrip] [ 2.19 GB ] Starперцы / Last Vegas [2013 BDRip-AVC] DUB potroks Скачать
2 | 0
Фильмы с авторской озвучкой [ 2.14 GB ] Starперцы / Last Vegas [2013 HDRip] 2x[AVO] killermax2013 Скачать
1 | 0
Фильмы [HD 720p, 1080p] (Хороший звук DUB, MVO) [ 9.78 GB ] Starперцы / Last Vegas [2013 BDRip 1080p Ворон Скачать
1 | 0
Фильмы 2013 [DVDrip, WEB-DLRip, HDrip] [ 1.41 GB ] Starперцы / Last Vegas [2013 BDRip-AVC] MVO + Sub potroks Скачать
1 | 0
Фильмы 2013 [DVDrip, WEB-DLRip, HDrip] [ 1.37 GB ] Starперцы / Last Vegas [2013 HDRip Ворон Скачать
1 | 0

28-11-2019 20:33  

Отключить всю рекламу на сайте

17-01-2014 04:54 Starперцы Скачать торрент  

как фильм?pb.wtf



17-01-2014 08:04 Starперцы Скачать торрент  

Фильм норм ,но лучше подождать бубляж pb.wtf



25-01-2014 12:33 Starперцы Скачать торрент  

фильм не напряжный. вечером посмотреть в обнимку с лялькой вполне можно.pb.wtf



    Дорогой пользователь! Огромная просьба, поблагодарите релизера, оцените раздачу и оставьте свои комментарий, если Вы скачали Starперцы через торрент бесплатно! Внесите свою лепту в развитие PiratBit!
    Комментировать посты могут только пользователи прошедшие не сложную регистрацию
    Показать сообщения:    

    Starперцы через торрент
    Скачать бесплатно Starперцы
    Starперцы скачать торрент
    Starперцы смотреть онлайн
    Cкачать фильм Starперцы бесплатно
    Starперцы скачать торрент в хорошем качестве
    Starперцы смотреть онлайн бесплатно в хорошем качестве


    Вы не можете начинать темы
    Вы не можете отвечать на сообщения
    Вы не можете редактировать свои сообщения
    Вы не можете удалять свои сообщения
    Вы не можете голосовать в опросах
    Вы не можете прикреплять файлы к сообщениям
    Вы можете скачивать файлы