Ссылка на приватное зеркало нашего сайта всего за 1$. Внимание количество ограничено!!!

2 сезон

iTunes

1 сезон

1

iTunes

iTunes

iTunes

1 сезон

RePack

30

ИГРА 18+

pack

ВАЖНО

!!Акция!!

Alien_RageХит недели

RePack

MK11
pack

Забери бонус

RePack

jed

!!Акция!!

Alien_Rage

RePack

fifa19

RePack

Assassins Creed: Odyssey

RePack

NEED FOR SPEED™ PAYBACK

4 сезон

9 сезон

Бесстыжие 9 сезон

Все сериалы

все сериалы на PB.wtf

RePack

FAR CRY 5
  

Дневник памяти / The Notebook (Ник Кассаветис) [2004 г., драма, мелодрама, BDRip 1080p, DUB + MVO + Original Eng] pb.wtf

Дневник памяти через торрент pb.wtf

Размер: 14.88 GB | Добавлен: 6 лет 7 мес. назад | Торрент скачан:50 раз
Скачать  

05-03-2014 10:26 Дневник памяти Скачать торрент  

Дневник памяти / The Notebook«За каждой большой любовью стоит большая история»Год выпуска: 2004
Страна: США
Жанр: драма, мелодрама
Продолжительность: 02:03:49
Перевод: Дубляж + Профессиональный многоголосый, закадровый (НТВ+)
Субтитры: русские, английские

Режиссер: Ник Кассаветис
Продюссер: Линн Харрис, Марк Джонсон, Тоби Эммерик
Сценарий: Джереми Левин, Ян Сарди, Николас Спаркс

Бюджет: $29 000 000
Премьера в мире: 20 мая 2004







В ролях: Райан Гослинг, Рейчел МакАдамс, Джеймс Гарнер, Джина Роуландс, Джеймс Марсден, Сэм Шепард, Дэвид Торнтон, Джоан Аллен, Кевин Коннолли, Дженнифер Экхолс




Описание: Трогательная история любви, прочитанная пожилым мужчиной из старой записной книжки женщине в доме престарелых. Это история отношений юноши и девушки из разных социальных слоев, живших в Северной Каролине. Ной и Элли провели вместе незабываемое лето, пока их не разделили вначале родители, а затем Вторая мировая война.
После войны все изменилось: Элли обручилась с удачливым бизнесменом, а Ной жил наедине со своими воспоминаниями в старинном доме, который ему удалось отреставрировать. Когда Элли прочла об этом в местной газете, она поняла: ей нужно найти его и решить наконец судьбу их любви…





Доп. информация: Сохранены и подписаны оригинальные чаптеры как на Blu-ray.

Качество: BDRip 1080p
Формат: MKV
Видео кодек: x264
Аудио кодек: AC3
Видео: 1920x816, 23.976 fps,@L4.1 x264, - 15, 400 Kbps
Аудио#1: Russian: 48 kHz, AC3 5.1 @ 640 Kbps - Дубляж, Blu-Ray
Аудио#2: Russian: 48 kHz, AC3 2.0 @ 192 Kbps - Многоголосый, НТВ+
Аудио#3: English: 48 kHz, AC3 5.1 @ 640 Kbps
Аудио#4: English: 48 kHz, AC3 2.0 @ 192 Kbps - Commentary 1
Аудио#5: English: 48 kHz, AC3 2.0 @ 192 Kbps - Commentary 2
Рип от: TheFlash

Полное имя : The.Notebook.2004.BluRay.1080p.AC3.5.1.x264.dxva-BluHD.mkv
Формат : Matroska
Версия формата : Version 2
Размер файла : 14,9 Гбайт
Продолжительность : 2 ч. 3 м.
Общий поток : 17,2 Мбит/сек
Название фильма : The Notebook (2004)
Дата кодирования : UTC 2012-04-21 19:37:56
Программа кодирования : mkvmerge v5.5.0 ('Healer') built on Apr 6 2012 21:43:24
Библиотека кодирования : libebml v1.2.3 + libmatroska v1.3.0
Видео
Идентификатор : 1
Формат : AVC
Формат/Информация : Advanced Video Codec
Профиль формата : High@L4.1
Параметр CABAC формата : Да
Параметр ReFrames формата : 5 кадров
Идентификатор кодека : V_MPEG4/ISO/AVC
Продолжительность : 2 ч. 3 м.
Битрейт : 15,4 Мбит/сек
Ширина : 1920 пикселей
Высота : 816 пикселей
Соотношение сторон : 2,35:1
Частота кадров : 23,976 кадра/сек
Цветовое пространство : YUV
Субдискретизация насыщенности : 4:2:0
Битовая глубина : 8 бит
Тип развёртки : Прогрессивная
Бит/(Пиксели*Кадры) : 0.409
Размер потока : 13,0 Гбайт (87%)
Библиотека кодирования : x264 core 119 r2106 07efeb4
Настройки программы : cabac=1 / ref=5 / deblock=1:-2:-2 / analyse=0x3:0x113 / me=umh / subme=11 / psy=1 / psy_rd=1.05:0.05 / mixed_ref=1 / me_range=48 / chroma_me=1 / trellis=2 / 8x8dct=1 / cqm=0 / deadzone=21,11 / fast_pskip=0 / chroma_qp_offset=-3 / threads=18 / sliced_threads=0 / slices=4 / nr=0 / decimate=1 / interlaced=0 / bluray_compat=0 / constrained_intra=0 / bframes=7 / b_pyramid=2 / b_adapt=2 / b_bias=0 / direct=3 / weightb=1 / open_gop=0 / weightp=2 / keyint=250 / keyint_min=23 / scenecut=40 / intra_refresh=0 / rc_lookahead=120 / rc=2pass / mbtree=1 / bitrate=15360 / ratetol=1.0 / qcomp=0.60 / qpmin=0 / qpmax=69 / qpstep=4 / cplxblur=20.0 / qblur=0.5 / vbv_maxrate=40000 / vbv_bufsize=30000 / nal_hrd=none / ip_ratio=1.40 / aq=1:1.00
Язык : English
Default : Нет
Forced : Нет
Аудио #1
Идентификатор : 2
Формат : AC-3
Формат/Информация : Audio Coding 3
Расширение режима : CM (complete main)
Идентификатор кодека : A_AC3
Продолжительность : 2 ч. 3 м.
Вид битрейта : Постоянный
Битрейт : 640 Кбит/сек
Каналы : 6 каналов
Расположение каналов : Front: L C R, Side: L R, LFE
Частота : 48,0 КГц
Битовая глубина : 16 бит
Метод сжатия : С потерями
Размер потока : 567 Мбайт (4%)
Заголовок : AC3 5.1 @ 640 Kbps - Дубляж, Blu-ray
Язык : Russian
Default : Да
Forced : Нет
Аудио #2
Идентификатор : 3
Формат : AC-3
Формат/Информация : Audio Coding 3
Расширение режима : CM (complete main)
Идентификатор кодека : A_AC3
Продолжительность : 2 ч. 3 м.
Вид битрейта : Постоянный
Битрейт : 192 Кбит/сек
Каналы : 2 канала
Расположение каналов : Front: L R
Частота : 48,0 КГц
Битовая глубина : 16 бит
Метод сжатия : С потерями
Размер потока : 170 Мбайт (1%)
Заголовок : AC3 2.0 @ 192 Kbps - Многоголосый, НТВ+
Язык : Russian
Default : Нет
Forced : Нет
Аудио #3
Идентификатор : 4
Формат : AC-3
Формат/Информация : Audio Coding 3
Расширение режима : CM (complete main)
Идентификатор кодека : A_AC3
Продолжительность : 2 ч. 3 м.
Вид битрейта : Постоянный
Битрейт : 640 Кбит/сек
Каналы : 6 каналов
Расположение каналов : Front: L C R, Side: L R, LFE
Частота : 48,0 КГц
Битовая глубина : 16 бит
Метод сжатия : С потерями
Размер потока : 567 Мбайт (4%)
Заголовок : AC3 5.1 @ 640 Kbps
Язык : English
Default : Нет
Forced : Нет
Аудио #4
Идентификатор : 5
Формат : AC-3
Формат/Информация : Audio Coding 3
Профиль формата : Dolby Digital
Расширение режима : CM (complete main)
Идентификатор кодека : A_AC3
Продолжительность : 2 ч. 3 м.
Вид битрейта : Постоянный
Битрейт : 192 Кбит/сек
Каналы : 2 канала
Расположение каналов : Front: L R
Частота : 48,0 КГц
Битовая глубина : 16 бит
Метод сжатия : С потерями
Размер потока : 170 Мбайт (1%)
Заголовок : AC3 2.0 @ 192 Kbps - Commentary 1
Язык : English
Default : Нет
Forced : Нет
Аудио #5
Идентификатор : 6
Формат : AC-3
Формат/Информация : Audio Coding 3
Профиль формата : Dolby Digital
Расширение режима : CM (complete main)
Идентификатор кодека : A_AC3
Продолжительность : 2 ч. 3 м.
Вид битрейта : Постоянный
Битрейт : 192 Кбит/сек
Каналы : 2 канала
Расположение каналов : Front: L R
Частота : 48,0 КГц
Битовая глубина : 16 бит
Метод сжатия : С потерями
Размер потока : 170 Мбайт (1%)
Заголовок : AC3 2.0 @ 192 Kbps - Commentary 2
Язык : English
Default : Нет
Forced : Нет
Текст #1
Идентификатор : 7
Формат : UTF-8
Идентификатор кодека : S_TEXT/UTF8
Идентификатор кодека/Информация : UTF-8 Plain Text
Язык : Russian
Default : Нет
Forced : Нет
Текст #2
Идентификатор : 8
Формат : UTF-8
Идентификатор кодека : S_TEXT/UTF8
Идентификатор кодека/Информация : UTF-8 Plain Text
Язык : English
Default : Нет
Forced : Нет
Меню
00:00:00.000 : en:CHAPTER01
00:03:17.489 : en:CHAPTER02
00:05:08.683 : en:CHAPTER03
00:10:40.849 : en:CHAPTER04
00:19:12.985 : en:CHAPTER05
00:28:18.322 : en:CHAPTER06
00:36:51.084 : en:CHAPTER07
00:43:15.885 : en:CHAPTER08
00:54:04.408 : en:CHAPTER09
00:57:43.794 : en:CHAPTER10
01:01:35.734 : en:CHAPTER11
01:04:52.764 : en:CHAPTER12
01:15:15.511 : en:CHAPTER13
01:21:26.590 : en:CHAPTER14
01:25:21.199 : en:CHAPTER15
01:28:30.722 : en:CHAPTER16
01:35:35.313 : en:CHAPTER17
01:42:15.338 : en:CHAPTER18
01:51:18.672 : en:CHAPTER19
01:58:20.302 : en:CHAPTER20


Дневник памяти скачать торрент


pb.wtf



Скачать Дневник памяти через торрент http://pic.kartinco.top/images/6/2hrwb.jpg Скачать фильм Дневник памяти через торрент бесплантно в хорошем качестве Описание: Трогательная история любви, прочитанная пожилым мужчиной из старой записной книжки женщине в доме престарелых. Это история ... 10 10 3
Info! Золотая раздача, скачанное не засчитывается.
Торрент: Зарегистрирован [2014-03-05 10:26] · скачан: 50 раз
Статус: √ проверено
Размер: 14.88 GB
Как cкачать? Как скачать Дневник памяти через торрент | qTorrent

% Раздел Тема Автор DL S | L
Фильмы [HD 720p, 1080p] (Хороший звук DUB, MVO) [ 10.31 GB ] Дневник памяти / The Notebook [2004 BDRip 1080p] DUB MVO AVO msltel Скачать
2 | 0
Фильмы [HD 720p, 1080p] (Хороший звук DUB, MVO) [ 5.57 GB ] Дневник памяти / The Notebook [2004 BDRip 720p] DUB MVO AVO msltel Скачать
1 | 1
Фильмы [HD 720p, 1080p] (Хороший звук DUB, MVO) [ 7.36 GB ] Дневник памяти / The Notebook [2004 BDRip 720p DUB + Оригинал] Ke$h@ Скачать
1 | 0
Фильмы 2001-2005 [ 1.46 GB ] Дневник памяти / Notebook The [2004 ... HDRip] MoNaZ Скачать
3 | 0
Фильмы [HD 720p, 1080p] (Хороший звук DUB, MVO) [ 4.38 GB ] Дневник памяти / The Notebook [2004 BDRip 1080p] -=Cherry=- Скачать
1 | 0
Фильмы [HD 720p, 1080p] (Хороший звук DUB, MVO) [ 7.95 GB ] Дневник памяти / The Notebook [2004 BDRip 1080p] Jasti Скачать
1 | 0
Фильмы [HD 720p, 1080p] (Хороший звук DUB, MVO) [ 4.37 GB ] Дневник памяти / The Notebook [2004 BDRip 720p] slet Скачать
1 | 0

28-11-2019 20:33  

Отключить всю рекламу на сайте

    Дорогой пользователь! Огромная просьба, поблагодарите релизера, оцените раздачу и оставьте свои комментарий, если Вы скачали Дневник памяти через торрент бесплатно! Внесите свою лепту в развитие PiratBit!
    Комментировать посты могут только пользователи прошедшие не сложную регистрацию
    Показать сообщения:    

    Дневник памяти через торрент
    Скачать бесплатно Дневник памяти
    Дневник памяти скачать торрент
    Дневник памяти смотреть онлайн
    Cкачать фильм Дневник памяти бесплатно
    Дневник памяти скачать торрент в хорошем качестве
    Дневник памяти смотреть онлайн бесплатно в хорошем качестве


    Вы не можете начинать темы
    Вы не можете отвечать на сообщения
    Вы не можете редактировать свои сообщения
    Вы не можете удалять свои сообщения
    Вы не можете голосовать в опросах
    Вы не можете прикреплять файлы к сообщениям
    Вы можете скачивать файлы