Архив 81

1 сезон

Добыча

Дубляж

Тед Лассо

3 сезон

Тор

1 сезон

13 клиническая

3 сезон

Жестокая ночь

Дубляж

Одни из нас

Лицензия

The Last of Us игра на PC

Extended

Deluxe

Deluxe

pack

Рекомендуем

30

Repack

ВАЖНО

ВАЖНО

Ghostwire

Пиратка

jed

RePack

nioh2

RePack

RDR2

RePack

NEED FOR SPEED™ PAYBACK

RePack

скачать торрент

Кинопоиск HD

Острые козырьки 6 сезон

6 сезон

FAR CRY 6

RePack

скачать торрент

Лицензия

скачать торрент

MVO

1

1 сезон

скачать торрент

1 сезон

скачать торрент

Лицензия

  

Чемпион / Секретариат / Secretariat (Рэндолл Уоллес / Randall Wallace) [2010, Драма, семейный, история, спорт, HDTVRip] [MVO] (1 канал)

Чемпион через торрент pb.wtf

Размер: 1.45 GB | Добавлен: 9 лет назад | Торрент скачан:46 раз
Смотреть онлайн | Скачать | Поддержите нас   

05-03-2014 11:02 Чемпион Скачать торрент  

Чемпион / Секретариат / Secretariat Год выпуска: 2010
Страна: США
Жанр: Драма, семейный, история, спорт
Продолжительность: 01:51:50
Перевод: Профессиональный (многоголосый закадровый) [1 канал]
Cубтитры: нет
Оригинальная аудиодорожка: нет

Режиссер: Рэндолл Уоллес / Randall Wallace

В ролях: Дайан Лэйн, Джон Малкович, Дилан Уолш, Марго Мартиндейл, Фред Долтон Томпсон, Джеймс Кромуэлл, Скотт Гленн, Майкл Хардинг

Описание: Невероятная история о лошади по кличке Секретариат, которая в 1973 году смогла сделать то, что никому не удавалось на протяжении 25 лет - выиграть подряд три престижнейших скачки из серии "Тройная Корона"

СЭМПЛ

Качество видео: HDTVRip
Формат: AVI
Видео кодек: XviD
Аудио кодек: AC-3
Видео: MPEG4, XviD, 720x400 (16/9), 25.000 fps, 1 658 Kbps (0.230 bit/pixel)
Аудио: AC-3, 48.0 KHz, 2 ch, 192 Kbps, CBR
Общее
Полное имя : K:Чемпион.avi
Формат : AVI
Формат/Информация : Audio Video Interleave
Размер файла : 1,45 Гбайт
Продолжительность : 1 ч. 51 м.
Общий поток : 1860 Кбит/сек
Название фильма : Чемпион / Секретариат / Secretariat (2010)
Режиссёр : miha2154
Программа кодирования : VirtualDubMod 1.5.10.2 (build 2540/release)
Библиотека кодирования : VirtualDubMod build 2540/release
Видео
Идентификатор : 0
Формат : MPEG-4 Visual
Профиль формата : Advanced [email protected]
Параметр BVOP формата : 2
Параметр QPel формата : Нет
Параметр GMC формата : Без точки перехода
Параметр матрицы формата : Default (MPEG)
Идентификатор кодека : XVID
Идентификатор кодека/Подсказка : XviD
Продолжительность : 1 ч. 51 м.
Битрейт : 1658 Кбит/сек
Ширина : 720 пикселей
Высота : 400 пикселей
Соотношение сторон : 16:9
Частота кадров : 25,000 кадров/сек
Цветовое пространство : YUV
Субдискретизация насыщенности : 4:2:0
Битовая глубина : 8 бит
Тип развёртки : Прогрессивная
Метод сжатия : С потерями
Бит/(Пиксели*Кадры) : 0.230
Размер потока : 1,30 Гбайт (89%)
Библиотека кодирования : XviD 1.1.0 (UTC 2005-11-22)
Аудио
Идентификатор : 1
Формат : AC-3
Формат/Информация : Audio Coding 3
Расширение режима : CM (complete main)
Параметр Endianness формата : Big
Идентификатор кодека : 2000
Продолжительность : 1 ч. 51 м.
Вид битрейта : Постоянный
Битрейт : 192 Кбит/сек
Каналы : 2 канала
Расположение каналов : Front: L R
Частота : 48,0 КГц
Битовая глубина : 16 бит
Метод сжатия : С потерями
Размер потока : 154 Мбайт (10%)
Выравнивание : Разделение по промежуткам
Продолжительность промежутка : 40 мс. (1,00 видеокадр)
Время предзагрузки промежутка : 500 мс.
Заголовок : Профессиональный (многоголосый закадровый)
Рип с канала Первый HD. Из видеоряда удален логотип канала, остались послерекламные вставки с названием фильма.



Скачать Чемпион через торрент http://i59.fastpic.ru/big/2014/0305/b3/a79bd50063e29e0d4bfe0ec5d30413b3.jpg Скачать, смотреть онлайн Чемпион бесплантно в хорошем качестве Описание: Невероятная история о лошади по кличке Секретариат, которая в 1973 году смогла сделать то, что никому не удавалось на протяжении ... 9 10 2
Торрент: Зарегистрирован [2014-03-05 11:02] · скачан: 46 раз
Статус: √ проверено
Размер: 1.45 GB
Как cкачать? Как скачать Чемпион через торрент | UTorrent

% Раздел Тема Автор DL S | L
Фильмы (DVD фильмы) [ 7.14 GB ] Чемпион / Secretariat | | Чемпион / Secretariat (Рэндолл Уоллес / Randall Wallace voovaz Скачать
1 | 0

28-11-2019 20:33  


Отключить вcю реклaмy на сайте, в т.ч. и в плеере онлайн просмотра!

    Дорогой пользователь! Огромная просьба, поблагодарите релизера, оцените раздачу и оставьте свои комментарий, если Вы скачали Чемпион через торрент бесплатно!!
    Комментировать посты могут только пользователи прошедшие не сложную регистрацию
    Показать сообщения:    


    Чемпион через торрент
    Скачать бесплатно Чемпион
    Чемпион скачать торрент
    Чемпион смотреть онлайн
    Cкачать фильм Чемпион бесплатно
    Чемпион скачать торрент в хорошем качестве
    Чемпион смотреть онлайн бесплатно в хорошем качестве
    Вы не можете начинать темы
    Вы не можете отвечать на сообщения
    Вы не можете редактировать свои сообщения
    Вы не можете удалять свои сообщения
    Вы не можете голосовать в опросах
    Вы не можете прикреплять файлы к сообщениям
    Вы можете скачивать файлы
    Чемпион / Секретариат / Secretariat [2010, Драма, семейный, история, спорт, HDTVRip] [MVO] смотреть онлайн, скачать торрент picoco.icu