2 сезон

iTunes

MVO

1

2 сезон

iTunes

iTunes

1 сезон

RePack

30

Новинка

ВАЖНО

ИГРА 18+

pack

RePack

MK11
pack

Легкие деньги

RePack

jed

RePack

fifa19

RePack

RDR2

RePack

NEED FOR SPEED™ PAYBACK

4 сезон

9 сезон

Бесстыжие 9 сезон

Все сериалы

все сериалы на PB.wtf

RePack

FAR CRY 5

Anonymous, доброе утро, мы не успеваем собрать деньги на оплату серверов за декабрь и январь, помогите нам пожалуйста в это трудное время. В качестве благодарности мы отключим Вам всю рекламу на сайте (укажите свой ник в строку Ваше имя)!

×
  
Magnet ссылка

Я, Франкенштейн / I, Frankenstein (Стюарт Битти) [2014 г., Фэнтези, Боевик, Приключения, BDRip 1080p, Дубляж, Лицензия] Анаглиф (Дюбуа) pb.wtf

Я, Франкенштейн через торрент pb.wtf

Размер: 9.36 GB | Добавлен: 6 лет 10 мес. назад | Торрент скачан:147 раз
Скачать  

05-03-2014 11:39 Я, Франкенштейн Скачать торрент  

Я, Франкенштейн в 3D / I, Frankenstein in 3D

Год выпуска: 2014
Страна: США, Австралия
Жанр: Фэнтези, Боевик, Приключения,
Продолжительность: 01:33:04
Перевод: Дубляж, Лицензия

Режиссер: Стюарт Битти
Продюссер: Сидни Киммел, Гари Лучези, Эндрю Мэйсон
Сценарий: Стюарт Битти, Кевин Гревье, Мэри Шелли

Бюджет: $65 000 000
Премьера в мире: 20 января 2014



В ролях: Аарон Экхарт, Ивонн Страховски, Миранда Отто, Билл Найи, Джай Кортни, Сократис Отто, Аден Янг, Кэйтлин Стэйси, Махеш Джаду, Стив Музакис,

Описание: Он — монстр. Он — двухсотлетний плод безумной фантазии своего создателя. Он — легенда. Мир, в котором он живет, населен древними горгульями и бессмертными демонами, которые сражаются за обладание человечеством. Величественные соборы скрывают огромные арсеналы, за дверьми научных лабораторий проводятся эксперименты по воскрешению мертвых. Война двух кланов могущественных существ достигает своего пика. И только он, Адам, монстр Франкенштейна, в силах ее остановить.

Доп. информация: Формат 3D: Анаглиф (Дюбуа)



Качество: BDRip 1080p
Формат: MKV
Видео кодек: H.264
Аудио кодек: AC3
Видео: x264, 1920 x 1080 (16:9), 13,5 Мбит/сек, 23,976 fps, ( 0.271 bpp)
Аудио#1: AC3, 48.0 KHz, 6 ch, 640 kbps (Дубляж - BD 3D Rus)



скриншот   скриншот   скриншот   скриншот   скриншот  
Общее
Уникальный идентификатор : 213856411706714582901489353089844522397 (0xA0E33F286BA0A5B685258DBEBEA02D9D)
Полное имя : D: IFrankenstein(2013)3D(Anaglyph_Dubois).mkv
Формат : Matroska
Версия формата : Version 4 / Version 2
Размер файла : 9,36 Гбайт
Продолжительность : 1 ч. 33 м.
Общий поток : 14,4 Мбит/сек
Название фильма : Я, Франкенштейн / I, Frankenstein (2013) 3D Crop(Anaglyph_Dubois)
Дата кодирования : UTC 2014-03-04 20:28:09
Программа кодирования : mkvmerge v6.2.0 ('Promised Land') built on Apr 28 2013 12:22:01
Библиотека кодирования : libebml v1.3.0 + libmatroska v1.4.0

Видео
Идентификатор : 1
Формат : AVC
Формат/Информация : Advanced Video Codec
Профиль формата : High@L4.1
MultiView_Count : 2
MultiView_Layout : Anaglyph (cyan/red)
Параметр CABAC формата : Да
Параметр ReFrames формата : 4 кадра
Идентификатор кодека : V_MPEG4/ISO/AVC
Продолжительность : 1 ч. 33 м.
Битрейт : 13,5 Мбит/сек
Ширина : 1920 пикселей
Высота : 1080 пикселей
Соотношение сторон : 16:9
Режим частоты кадров : Постоянный
Частота кадров : 23,976 кадра/сек
Цветовое пространство : YUV
Субдискретизация насыщенности : 4:2:0
Битовая глубина : 8 бит
Тип развёртки : Прогрессивная
Бит/(Пиксели*Кадры) : 0.271
Размер потока : 8,76 Гбайт (94%)
Заголовок : I, Frankenstein (2013) 3D Crop(Anaglyph_Dubois).mkv
Библиотека кодирования : x264 core 130 r2274bm c832fe9
Настройки программы : cabac=1 / ref=4 / deblock=1:-1:-1 / analyse=0x3:0x113 / me=umh / subme=8 / psy=1 / psy_rd=1.00:0.15 / mixed_ref=1 / me_range=16 / chroma_me=1 / trellis=1 / 8x8dct=1 / cqm=0 / deadzone=21,11 / fast_pskip=1 / chroma_qp_offset=-3 / threads=2 / lookahead_threads=2 / sliced_threads=1 / slices=2 / nr=0 / decimate=1 / interlaced=0 / bluray_compat=0 / constrained_intra=0 / bframes=0 / weightp=2 / keyint=250 / keyint_min=23 / scenecut=40 / intra_refresh=0 / rc=crf / mbtree=0 / crf=20.0 / qcomp=0.60 / qpmin=0 / qpmax=69 / qpstep=4 / ip_ratio=1.40 / aq=1:1.00
Язык : English
Default : Да
Forced : Нет

Аудио
Идентификатор : 2
Формат : AC-3
Формат/Информация : Audio Coding 3
Расширение режима : CM (complete main)
Параметр Endianness формата : Big
Идентификатор кодека : A_AC3
Продолжительность : 1 ч. 33 м.
Вид битрейта : Постоянный
Битрейт : 640 Кбит/сек
Каналы : 6 каналов
Расположение каналов : Front: L C R, Side: L R, LFE
Частота : 48,0 КГц
Битовая глубина : 16 бит
Метод сжатия : С потерями
Размер потока : 426 Мбайт (4%)
Заголовок : Дубляж - BD 3D Rus
Язык : Russian
Default : Да
Forced : Нет

Меню
00:00:00.000 : :1
00:12:24.077 : :2
00:22:07.785 : :3
00:33:21.958 : :4
00:44:51.772 : :5
00:56:45.527 : :6
01:07:12.487 : :7
01:21:14.661 : :8
pb.wtf



Скачать Я, Франкенштейн через торрент https://pic.kartinco.top/images/6/928ga.jpg Скачать фильм Я, Франкенштейн через торрент бесплантно в хорошем качестве Описание: Он — монстр. Он — двухсотлетний плод безумной фантазии своего создателя. Он — легенда. Мир, в котором он живет, населен древними ... 9.9 10 9
Info! Золотая раздача, скачанное не засчитывается.
Торрент: Зарегистрирован [2014-03-05 11:39] · скачан: 147 раз
Статус: √ проверено
Размер: 9.36 GB
Как cкачать? Как скачать Я, Франкенштейн через торрент | UTorrent

% Раздел Тема Автор DL S | L
Видео для КПК и Смартфонов [ 363 MB ] Я Франкенштейн / I Frankenstein [2013 HDRip-AVC] 100-uk Скачать
1 | 0
3D Фильмы [ 11.13 GB ] Я Франкенштейн / I Frankenstein [2014 BDrip1080p/ 3D ] []OverUnder / Вертикальная стереопара Ворон Скачать
1 | 0
Фильмы 2013 [DVDrip, WEB-DLRip, HDrip] [ 1.46 GB ] Я Франкенштейн / I Frankenstein [2013 BDRip-AVC] [US Transfer] DUB potroks Скачать
1 | 0
Фильмы 2013 [DVDrip, WEB-DLRip, HDrip] [ 2.18 GB ] Я Франкенштейн / I Frankenstein [2013 BDRip-AVC] [US Transfer] DUB potroks Скачать
1 | 0
Фильмы [HD 720p, 1080p] (Хороший звук DUB, MVO) [ 6.14 GB ] Я Франкенштейн / I Frankenstein [2013 BDRip 720p] [US Transfer] DUB potroks Скачать
1 | 0
Фильмы 2014 [DVDrip, WEB-DLRip, HDrip] [ 1.37 GB ] Я Франкенштейн / I Frankenstein [2014 HDRip] [] Ворон Скачать
1 | 0
Фильмы (Blu-ray, BD-Remux, HDDVD) [ 14.38 GB ] Я Франкенштейн / I Frankenstein [2014 BDRemux ] [] Ворон Скачать
1 | 0

28-11-2019 20:33  

Отключить всю рекламу на сайте

    Дорогой пользователь! Огромная просьба, поблагодарите релизера, оцените раздачу и оставьте свои комментарий, если Вы скачали Я, Франкенштейн через торрент бесплатно! Внесите свою лепту в развитие PiratBit!
    Комментировать посты могут только пользователи прошедшие не сложную регистрацию
    Показать сообщения:    

    Я, Франкенштейн через торрент
    Скачать бесплатно Я, Франкенштейн
    Я, Франкенштейн скачать торрент
    Я, Франкенштейн смотреть онлайн
    Cкачать фильм Я, Франкенштейн бесплатно
    Я, Франкенштейн скачать торрент в хорошем качестве
    Я, Франкенштейн смотреть онлайн бесплатно в хорошем качестве


    Вы не можете начинать темы
    Вы не можете отвечать на сообщения
    Вы не можете редактировать свои сообщения
    Вы не можете удалять свои сообщения
    Вы не можете голосовать в опросах
    Вы не можете прикреплять файлы к сообщениям
    Вы можете скачивать файлы