Ссылка на приватное зеркало нашего сайта всего за 1$. Внимание количество ограничено!!!

2 сезон

iTunes

1 сезон

1

iTunes

iTunes

iTunes

1 сезон

RePack

30

ИГРА 18+

pack

ВАЖНО

!!Акция!!

Alien_RageХит недели

RePack

MK11
pack

Забери бонус

RePack

jed

!!Акция!!

Alien_Rage

RePack

fifa19

RePack

Assassins Creed: Odyssey

RePack

NEED FOR SPEED™ PAYBACK

4 сезон

9 сезон

Бесстыжие 9 сезон

Все сериалы

все сериалы на PB.wtf

RePack

FAR CRY 5
  

Эта замечательная жизнь / It's a Wonderful Life [Color version] (Фрэнк Капра) [1946, США, фэнтези, драма, семейный, BDRip 720p] 4xMVO + AVO [Карцев] + Original + Subs pb.wtf

Эта замечательная жизнь через торрент pb.wtf

Размер: 6.24 GB | Добавлен: 6 лет 7 мес. назад | Торрент скачан:46 раз
Скачать  

05-03-2014 11:54 Эта замечательная жизнь Скачать торрент  

Эта замечательная жизнь / It's a Wonderful Life
«They're going steady...straight to your heart!»
Год выпуска: 1946
Страна: США
Жанр: фэнтези, драма, семейный
Продолжительность: 02:10:35
Перевод:
|Профессиональный (многоголосый, закадровый) DVD Магия
Профессиональный (многоголосый, закадровый) DVD RONEe'S
Профессиональный (многоголосый, закадровый) SomeWax
Профессиональный (многоголосый, закадровый) ОРТ
Авторский (одноголосый закадровый) П.Карцев|

Субтитры: Русские, английские
Режиссер: Фрэнк Капра / Frank Capra
В ролях: Джеймс Стюарт (George Bailey), Донна Рид (Mary Hatch), Лайонел Бэрримор (Mr. Potter), Томас Митчелл (Uncle Billy), Генри Треверс (Clarence), Бьюла Бонди (Mrs. Bailey), Фрэнк Фэйлен (Ernie), Уорд Бонд (Bert), Глория Грэм (Violet), Х.Б. Уорнер (Mr. Gower), Тодд Карнс (Harry Bailey), Сэмьюэл С. Хайндс (Pa Bailey)
Описание:
Джордж Бейли, владелец кредитной компании в выдуманном американском городке Бедфорд Фоллс, честный, отзывчивый, любящий муж и отец, подавлен свалившимися на него невзгодами и подумывает о самоубийстве.
Очевидно, что человек, отказывающийся от самого большого дара Бога - жизни - нуждается в помощи ангела-хранителя. И Небеса отправляют ему на выручку Кларенса, единственного свободного на тот момент Ангела Второго Класса, приятного, доброго, но неопытного, еще даже не заслужившего крылья.
Если он сделает свою работу хорошо и сможет отговорить Джорджа от смертного греха, он получит крылья. А времени у него почти не осталось... Кларенс находит единственно правильное решение - показать Джорджу мир, в котором тот не существует.
Рейтинг
Top Кинопоиск 250: #40 | IMDB Top 250 #26

MPAA: PG - Рекомендуется присутствие родителей

Качество: BDRip 720p |Исходник: It's A Wonderful Life 1946 Blu-ray 1080p AVC DD2.0-CtrlHD
Формат: MKV
Видео кодек: AVC
Аудио кодек: AC3
Видео: AVC, 960x720 (4:3), 5398 kbps, 23,976 fps, 0,326 bpp
Аудио №1: русский / AC3 / 5.1 / 48 kHz / 448 kbps / 16 bit |MVO DVD Магия|
Аудио №2: русский / AC3 / 2.0 / 48 kHz / 192 kbps / 16 bit |MVO DVD RONEe'S|
Аудио №3: русский / AC3 / 2.0 / 48 kHz / 192 kbps / 16 bit |MVO SomeWax|
Аудио №4: русский / AC3 / 2.0 / 48 kHz / 192 kbps / 16 bit |MVO ОРТ|
Аудио №5: русский / AC3 / 2.0 / 48 kHz / 192 kbps / 16 bit |AVO П.Карцев|
Аудио №6: английский / AC3 / 2.0 / 48 kHz / 224 kbps / 16 bit |Original|

Оформление: Messa-fan
Рип: by Messa-fan

Код:

Снят по рассказу «Величайший подарок» Филипа Ван Дорена Стерна. Действительно лучший праздничный подарок на все времена. Эта согревающая сердце фантазия, один из самых популярных фильмов за всю историю кино. Мало кто из кинематографистов может сравниться с режиссером Фрэнком Капрой в знании человеческого сердца, и «Эта замечательная жизнь» - мастерски выполненный шедевр сентиментальности, усиленный неумирающей верой самого Капры в человеческое общество, даже такое маленькое, как семья. С 70-ых годов в США фильм регулярно показывают по ведущим телеканалам в рождественский сочельник.

Код:

x264 [info]: frame I:1183  Avg QP:16.45  size:111950
x264 [info]: frame P:41640 Avg QP:17.87  size: 51507
x264 [info]: frame B:145050 Avg QP:19.50  size: 20754

Код:

Общее
Уникальный идентификатор                 : 186328303150375981953882192249685929818 (0x8C2D869E43963DB494CA59AE1785EF5A)
Полное имя                               : It's.A.Wonderful.Life.[Color.Version].BDRip.720p.4xMVO.AVO.Eng.Sub.by.Messa-fan.mkv
Формат                                   : Matroska
Версия формата                           : Version 4 / Version 2
Размер файла                             : 6,24 Гбайт
Продолжительность                        : 2 ч. 10 м.
Общий поток                              : 6840 Кбит/сек
Название фильма                          : It's a Wonderful Life (1946) [colored] rip by Messa-fan
Дата кодирования                         : UTC 2014-03-05 11:27:22
Программа кодирования                    : mkvmerge v6.7.0 ('Back to the Ground') 64bit built on Jan  8 2014 15:10:52
Библиотека кодирования                   : libebml v1.3.0 + libmatroska v1.4.1

Видео
Идентификатор                            : 1
Формат                                   : AVC
Формат/Информация                        : Advanced Video Codec
Профиль формата                          : High@L4.1
Параметр CABAC формата                   : Да
Параметр ReFrames формата                : 12 кадров
Идентификатор кодека                     : V_MPEG4/ISO/AVC
Продолжительность                        : 2 ч. 10 м.
Битрейт                                  : 5398 Кбит/сек
Ширина                                   : 960 пикселей
Высота                                   : 720 пикселей
Соотношение сторон                       : 4:3
Режим частоты кадров                     : Постоянный
Частота кадров                           : 23,976 кадра/сек
Цветовое пространство                    : YUV
Субдискретизация насыщенности            : 4:2:0
Битовая глубина                          : 8 бит
Тип развёртки                            : Прогрессивная
Бит/(Пиксели*Кадры)                      : 0.326
Размер потока                            : 4,80 Гбайт (77%)
Заголовок                                : It's a Wonderful Life (1946) [color ver.] rip by Messa-fan
Библиотека кодирования                   : x264 core 130 r2273 b3065e6
Настройки программы                      : cabac=1 / ref=12 / deblock=1:-3:-3 / analyse=0x3:0x113 / me=umh / subme=10 / psy=1 / psy_rd=0.90:0.05 / mixed_ref=1 / me_range=32 / chroma_me=1 / trellis=2 / 8x8dct=1 / cqm=0 / deadzone=21,11 / fast_pskip=0 / chroma_qp_offset=-5 / threads=6 / lookahead_threads=1 / sliced_threads=0 / nr=0 / decimate=1 / interlaced=0 / bluray_compat=0 / constrained_intra=0 / bframes=10 / b_pyramid=2 / b_adapt=2 / b_bias=0 / direct=3 / weightb=1 / open_gop=0 / weightp=1 / keyint=240 / keyint_min=23 / scenecut=40 / intra_refresh=0 / rc_lookahead=60 / rc=2pass / mbtree=1 / bitrate=5398 / ratetol=1.0 / qcomp=0.80 / qpmin=0 / qpmax=69 / qpstep=4 / cplxblur=20.0 / qblur=0.5 / vbv_maxrate=50000 / vbv_bufsize=62500 / nal_hrd=none / ip_ratio=1.20 / aq=1:0.70
Язык                                     : English
Default                                  : Да
Forced                                   : Нет

Аудио #1
Идентификатор                            : 2
Формат                                   : AC-3
Формат/Информация                        : Audio Coding 3
Расширение режима                        : CM (complete main)
Параметр Endianness формата              : Big
Идентификатор кодека                     : A_AC3
Продолжительность                        : 2 ч. 10 м.
Вид битрейта                             : Постоянный
Битрейт                                  : 448 Кбит/сек
Каналы                                   : 6 каналов
Расположение каналов                     : Front: L C R, Side: L R, LFE
Частота                                  : 48,0 КГц
Битовая глубина                          : 16 бит
Метод сжатия                             : С потерями
Размер потока                            : 419 Мбайт (7%)
Заголовок                                : RUS MVO (DVD Magic)
Язык                                     : Russian
Default                                  : Да
Forced                                   : Нет

Аудио #2
Идентификатор                            : 3
Формат                                   : AC-3
Формат/Информация                        : Audio Coding 3
Расширение режима                        : CM (complete main)
Параметр Endianness формата              : Big
Идентификатор кодека                     : A_AC3
Продолжительность                        : 2 ч. 10 м.
Вид битрейта                             : Постоянный
Битрейт                                  : 192 Кбит/сек
Каналы                                   : 2 канала
Расположение каналов                     : Front: L R
Частота                                  : 48,0 КГц
Битовая глубина                          : 16 бит
Метод сжатия                             : С потерями
Размер потока                            : 179 Мбайт (3%)
Заголовок                                : RUS MVO (DVD RONEe'S)
Язык                                     : Russian
Default                                  : Нет
Forced                                   : Нет

Аудио #3
Идентификатор                            : 4
Формат                                   : AC-3
Формат/Информация                        : Audio Coding 3
Расширение режима                        : CM (complete main)
Параметр Endianness формата              : Big
Идентификатор кодека                     : A_AC3
Продолжительность                        : 2 ч. 10 м.
Вид битрейта                             : Постоянный
Битрейт                                  : 192 Кбит/сек
Каналы                                   : 2 канала
Расположение каналов                     : Front: L R
Частота                                  : 48,0 КГц
Битовая глубина                          : 16 бит
Метод сжатия                             : С потерями
Размер потока                            : 179 Мбайт (3%)
Заголовок                                : RUS MVO (SomeWax)
Язык                                     : Russian
Default                                  : Нет
Forced                                   : Нет

Аудио #4
Идентификатор                            : 5
Формат                                   : AC-3
Формат/Информация                        : Audio Coding 3
Расширение режима                        : CM (complete main)
Параметр Endianness формата              : Big
Идентификатор кодека                     : A_AC3
Продолжительность                        : 2 ч. 10 м.
Вид битрейта                             : Постоянный
Битрейт                                  : 192 Кбит/сек
Каналы                                   : 2 канала
Расположение каналов                     : Front: L R
Частота                                  : 48,0 КГц
Битовая глубина                          : 16 бит
Метод сжатия                             : С потерями
Размер потока                            : 179 Мбайт (3%)
Заголовок                                : RUS MVO (OPT)
Язык                                     : Russian
Default                                  : Нет
Forced                                   : Нет

Аудио #5
Идентификатор                            : 6
Формат                                   : AC-3
Формат/Информация                        : Audio Coding 3
Расширение режима                        : CM (complete main)
Параметр Endianness формата              : Big
Идентификатор кодека                     : A_AC3
Продолжительность                        : 2 ч. 10 м.
Вид битрейта                             : Постоянный
Битрейт                                  : 192 Кбит/сек
Каналы                                   : 2 канала
Расположение каналов                     : Front: L R
Частота                                  : 48,0 КГц
Битовая глубина                          : 16 бит
Метод сжатия                             : С потерями
Размер потока                            : 179 Мбайт (3%)
Заголовок                                : RUS AVO (Karcev)
Язык                                     : Russian
Default                                  : Нет
Forced                                   : Нет

Аудио #6
Идентификатор                            : 7
Формат                                   : AC-3
Формат/Информация                        : Audio Coding 3
Расширение режима                        : CM (complete main)
Параметр Endianness формата              : Big
Идентификатор кодека                     : A_AC3
Продолжительность                        : 2 ч. 10 м.
Вид битрейта                             : Постоянный
Битрейт                                  : 224 Кбит/сек
Каналы                                   : 2 канала
Расположение каналов                     : Front: L R
Частота                                  : 48,0 КГц
Битовая глубина                          : 16 бит
Метод сжатия                             : С потерями
Размер потока                            : 209 Мбайт (3%)
Заголовок                                : ENG (Original)
Язык                                     : English
Default                                  : Нет
Forced                                   : Нет

Текст #1
Идентификатор                            : 8
Формат                                   : UTF-8
Идентификатор кодека                     : S_TEXT/UTF8
Идентификатор кодека/Информация          : UTF-8 Plain Text
Заголовок                                : RUS (Full DVD Magic)
Язык                                     : Russian
Default                                  : Нет
Forced                                   : Нет

Текст #2
Идентификатор                            : 9
Формат                                   : UTF-8
Идентификатор кодека                     : S_TEXT/UTF8
Идентификатор кодека/Информация          : UTF-8 Plain Text
Заголовок                                : RUS (Full DVD RONEe'S)
Язык                                     : Russian
Default                                  : Нет
Forced                                   : Нет

Текст #3
Идентификатор                            : 10
Формат                                   : UTF-8
Идентификатор кодека                     : S_TEXT/UTF8
Идентификатор кодека/Информация          : UTF-8 Plain Text
Заголовок                                : ENG (Full)
Язык                                     : English
Default                                  : Нет
Forced                                   : Нет

Меню
00:00:00.000                             : en:00:00:00.000
00:03:42.931                             : en:00:03:42.931
00:05:24.908                             : en:00:05:24.908
00:07:45.840                             : en:00:07:45.840
00:11:39.449                             : en:00:11:39.449
00:14:16.689                             : en:00:14:16.689
00:19:02.767                             : en:00:19:02.767
00:21:14.023                             : en:00:21:14.023
00:24:03.317                             : en:00:24:03.317
00:35:15.613                             : en:00:35:15.613
00:42:32.091                             : en:00:42:32.091
00:50:16.430                             : en:00:50:16.430
01:00:11.900                             : en:01:00:11.900
01:03:49.576                             : en:01:03:49.576
01:13:55.139                             : en:01:13:55.139
01:16:50.397                             : en:01:16:50.397
01:19:07.368                             : en:01:19:07.368
01:22:59.933                             : en:01:22:59.933
01:30:24.127                             : en:01:30:24.127
01:32:19.159                             : en:01:32:19.159
01:35:34.228                             : en:01:35:34.228
01:38:39.330                             : en:01:38:39.330
01:39:45.396                             : en:01:39:45.396
01:46:44.607                             : en:01:46:44.607
01:52:47.344                             : en:01:52:47.344
02:01:26.029                             : en:02:01:26.029
02:03:35.700                             : en:02:03:35.700
02:08:09.432                             : en:02:08:09.432


За аудио дорожки благодарю за (DVD RONEe'S) pk2012 с nnm-club, за все остальные Тарантиныч с тру.
  • Фильм снят по мотивам рассказа Филипа Ван Дорена Стерна «Величайший подарок» (The Greatest Gift, 1943).
  • С 70-ых годов в США фильм регулярно показывают по ведущим телеканалам в рождественский сочельник.
  • В 2004 году канал BBC выбирал лучшие фильмы, которые не получили «Оскара». Фильм «Эта прекрасная жизнь» попал на второе место.
  • pb.wtf



    Скачать Эта замечательная жизнь через торрент http://i3.imageban.ru/out/2014/03/05/0b38c68a0588272b85fecc7efa6365f2.jpg Скачать фильм Эта замечательная жизнь через торрент бесплантно в хорошем качестве Описание: Джордж Бейли, владелец кредитной компании в выдуманном американском городке Бедфорд Фоллс, честный, отзывчивый, любящий муж и ... 10 10 3
    Info! Золотая раздача, скачанное не засчитывается.
    Торрент: Зарегистрирован [2014-03-05 13:08] · скачан: 46 раз
    Статус: √ проверено
    Размер: 6.24 GB
    Как cкачать? Как скачать Эта замечательная жизнь через торрент | qTorrent



    Последний раз редактировалось: Messa-fan (2014-03-05 13:17), всего редактировалось 5 раз(а)

    28-11-2019 20:33  

    Отключить всю рекламу на сайте

    05-03-2014 13:22 Эта замечательная жизнь Скачать торрент  

    Огромное спасибо !
    Эта замечательная жизнь... Да, она замечательна, и хорошо своевременно это понять без помощи ангела-хранителя.
    И такие уникальные фильмы помогают сохранять уверенность в этом.
    Респект, Messa-fan! pb.wtf



    21-12-2019 15:48 Эта замечательная жизнь Скачать торрент  

    Благодарю за фильмpb.wtf



      Дорогой пользователь! Огромная просьба, поблагодарите релизера, оцените раздачу и оставьте свои комментарий, если Вы скачали Эта замечательная жизнь через торрент бесплатно! Внесите свою лепту в развитие PiratBit!
      Комментировать посты могут только пользователи прошедшие не сложную регистрацию
      Показать сообщения:    

      Эта замечательная жизнь через торрент
      Скачать бесплатно Эта замечательная жизнь
      Эта замечательная жизнь скачать торрент
      Эта замечательная жизнь смотреть онлайн
      Cкачать фильм Эта замечательная жизнь бесплатно
      Эта замечательная жизнь скачать торрент в хорошем качестве
      Эта замечательная жизнь смотреть онлайн бесплатно в хорошем качестве


      Вы не можете начинать темы
      Вы не можете отвечать на сообщения
      Вы не можете редактировать свои сообщения
      Вы не можете удалять свои сообщения
      Вы не можете голосовать в опросах
      Вы не можете прикреплять файлы к сообщениям
      Вы можете скачивать файлы