Ссылка на приватное зеркало нашего сайта всего за 1$. Внимание количество ограничено!!!

2 сезон

iTunes

1 сезон

1

iTunes

iTunes

iTunes

1 сезон

RePack

30

ИГРА 18+

pack

ВАЖНО

!!Акция!!

Alien_RageХит недели

RePack

MK11
pack

Забери бонус

RePack

jed

!!Акция!!

Alien_Rage

RePack

fifa19

RePack

Assassins Creed: Odyssey

RePack

NEED FOR SPEED™ PAYBACK

4 сезон

9 сезон

Бесстыжие 9 сезон

Все сериалы

все сериалы на PB.wtf

RePack

FAR CRY 5
  

Пятая Влacть / The Fifth Estate (Билл Кондон / Bill Condon) [2013 г.,триллер, драма, биография, BDRip 720p] pb.wtf

Пятая Влacть через торрент pb.wtf

Размер: 9.22 GB | Добавлен: 6 лет 7 мес. назад | Торрент скачан:147 раз
Скачать  

05-03-2014 12:05 Пятая Влacть Скачать торрент  

Пятая Влacть / The Fifth Estate«Всё тайное станет явным»
Год выпуска: 2013
Страна: Великобритания, Бельгия
Жанр: триллер, драма, биография
Продолжительность: 02:08:16

  • Перевод: Профессиональный (Дубляж);
  • Русские субтитры: есть
  • Оригинальная аудиодорожка: Английская

Режиссер: Билл Кондон / Bill Condon
В ролях: Бенедикт Камбербэтч, Даниэль Брюль, Дэвид Тьюлис, Алисия Викандер, Лора Линни, Стэнли Туччи, Энтони Маки, Питер Капальди, Мориц Бляйбтрой, Джейми Блэкли
Описание: В мире, где информация ценится превыше всего, а утечка сведений под грифом «секретно» может вызвать необратимые последствия, сайт WikiLeaks навсегда поменял правила игры. Фильм, основанный на реальных событиях, рассказывает о попытке разоблачить государственную коррупцию и ложь властей, которая превратила интернет-стартап в одну из самых известных и обсуждаемых организаций 21-го века. За первые годы существования WIKILEAKS обнародовал больше тайн, чем самые влиятельные в мире СМИ вместе взятые, раскрывая постыдные секреты государственных служб и финансовые преступления корпораций. Но когда основатели сайта получили доступ к крупнейшему засекреченному архиву США, им предстояло найти для себя ответ на один из важнейших вопросов современности: какова цена тайны в свободном обществе – и какова цена ее разглашения?

    Тип релиза: BDRip 720p
  • Контейнер: MKV
  • Видео кодек: H.264 | Аудио кодек: АС-3, DTS
  • Видео: 1280x534 at 23.976 fps, x264@L4.1, ~7600 kbps avg
  • Аудио 1: Russian: 48 kHz, AC3, 3/2 (L,C,R,l,r) + LFE ch, ~640.00 kbps avg |Дубляж, Blu-ray CEE|
  • Аудио 2: Russian: 48 kHz, AC3, 2/0 (L,R) ch, ~320.00 kbps avg |Descriptive|
  • Аудио 3: English: 48 kHz, DTS, 3/2 (L,C,R,l,r) + LFE ch, ~1536.00 kbps avg
  • Субтитры: Russian (Forced, iTunes), Russian (iTunes), English
  • Чаптеры: 18шт.


Общее
Полное имя : D:torrenttorThe.Fifth.Estate.2013.720p.BluRay.Rus.2xEng.mkv
Формат : Matroska
Версия формата : Version 2
Размер файла : 9,22 Гбайт
Продолжительность : 2 ч. 8 м.
Общий поток : 10,3 Мбит/сек
Дата кодирования : UTC 2014-02-18 15:11:18
Программа кодирования : mkvmerge v3.4.0 ('Rapunzel') built on May 15 2010 09:38:20
Библиотека кодирования : libebml v0.8.0 + libmatroska v0.9.0

Видео
Идентификатор : 1
Формат : AVC
Формат/Информация : Advanced Video Codec
Профиль формата : High@L4.1
Параметр CABAC формата : Да
Параметр ReFrames формата : 12 кадров
Идентификатор кодека : V_MPEG4/ISO/AVC
Продолжительность : 2 ч. 8 м.
Битрейт : 7621 Кбит/сек
Ширина : 1280 пикселей
Высота : 534 пикселя
Соотношение сторон : 2,40:1
Режим частоты кадров : Постоянный
Частота кадров : 23,976 кадра/сек
Цветовое пространство : YUV
Субдискретизация насыщенности : 4:2:0
Битовая глубина : 8 бит
Тип развёртки : Прогрессивная
Бит/(Пиксели*Кадры) : 0.465
Размер потока : 6,83 Гбайт (74%)
Библиотека кодирования : x264 core 140 r2377 1ca7bb9
Настройки программы : cabac=1 / ref=12 / deblock=1:-3:-3 / analyse=0x3:0x133 / me=tesa / subme=11 / psy=1 / psy_rd=1.05:0.00 / mixed_ref=1 / me_range=16 / chroma_me=1 / trellis=2 / 8x8dct=1 / cqm=0 / deadzone=21,11 / fast_pskip=0 / chroma_qp_offset=-2 / threads=12 / lookahead_threads=3 / sliced_threads=0 / nr=0 / decimate=1 / interlaced=0 / bluray_compat=0 / constrained_intra=0 / bframes=11 / b_pyramid=2 / b_adapt=2 / b_bias=0 / direct=3 / weightb=1 / open_gop=0 / weightp=2 / keyint=250 / keyint_min=23 / scenecut=40 / intra_refresh=0 / rc=crf / mbtree=0 / crf=15.8 / qcomp=0.70 / qpmin=0 / qpmax=69 / qpstep=4 / ip_ratio=1.40 / pb_ratio=1.30 / aq=1:0.90
Язык : English
Default : Да
Forced : Нет
Коэффициенты матрицы : BT.709

Аудио #1
Идентификатор : 2
Формат : AC-3
Формат/Информация : Audio Coding 3
Расширение режима : CM (complete main)
Параметр Endianness формата : Big
Идентификатор кодека : A_AC3
Продолжительность : 2 ч. 8 м.
Вид битрейта : Постоянный
Битрейт : 640 Кбит/сек
Каналы : 6 каналов
Расположение каналов : Front: L C R, Side: L R, LFE
Частота : 48,0 КГц
Битовая глубина : 16 бит
Метод сжатия : С потерями
Размер потока : 587 Мбайт (6%)
Заголовок : AC3 5.1 @ 640 kbps - DUB, Blu-ray
Язык : Russian
Default : Да
Forced : Нет

Аудио #2
Идентификатор : 3
Формат : DTS
Формат/Информация : Digital Theater Systems
Режим : 16
Параметр Endianness формата : Big
Идентификатор кодека : A_DTS
Продолжительность : 2 ч. 8 м.
Вид битрейта : Постоянный
Битрейт : 1509 Кбит/сек
Каналы : 6 каналов
Расположение каналов : Front: L C R, Side: L R, LFE
Частота : 48,0 КГц
Битовая глубина : 24 бит
Метод сжатия : С потерями
Задержка видео : 11 мс.
Размер потока : 1,35 Гбайт (15%)
Заголовок : DTS 5.1 @ 1536 kbps
Язык : English
Default : Нет
Forced : Нет

Аудио #3
Идентификатор : 4
Формат : AC-3
Формат/Информация : Audio Coding 3
Профиль формата : Dolby Digital
Расширение режима : CM (complete main)
Параметр Endianness формата : Big
Идентификатор кодека : A_AC3
Продолжительность : 2 ч. 8 м.
Вид битрейта : Постоянный
Битрейт : 320 Кбит/сек
Каналы : 2 канала
Расположение каналов : Front: L R
Частота : 48,0 КГц
Битовая глубина : 16 бит
Метод сжатия : С потерями
Размер потока : 294 Мбайт (3%)
Заголовок : AC3 2.0 @ 320 kbps - Descriptive
Язык : English
Default : Нет
Forced : Нет

Текст #1
Идентификатор : 5
Формат : UTF-8
Идентификатор кодека : S_TEXT/UTF8
Идентификатор кодека/Информация : UTF-8 Plain Text
Заголовок : Forced, iTunes
Язык : Russian
Default : Да
Forced : Нет

Текст #2
Идентификатор : 6
Формат : UTF-8
Идентификатор кодека : S_TEXT/UTF8
Идентификатор кодека/Информация : UTF-8 Plain Text
Заголовок : iTunes
Язык : Russian
Default : Нет
Forced : Нет

Текст #3
Идентификатор : 7
Формат : UTF-8
Идентификатор кодека : S_TEXT/UTF8
Идентификатор кодека/Информация : UTF-8 Plain Text
Язык : English
Default : Нет
Forced : Нет

Меню
00:00:00.000 : en:00:00:00.000
00:05:53.144 : en:00:05:53.144
00:12:18.446 : en:00:12:18.446
00:19:35.007 : en:00:19:35.007
00:26:17.993 : en:00:26:17.993
00:34:17.472 : en:00:34:17.472
00:40:31.720 : en:00:40:31.720
00:46:53.852 : en:00:46:53.852
00:54:58.336 : en:00:54:58.336
01:01:29.852 : en:01:01:29.852
01:06:38.119 : en:01:06:38.119
01:14:39.266 : en:01:14:39.266
01:20:30.951 : en:01:20:30.951
01:32:05.978 : en:01:32:05.978
01:39:26.085 : en:01:39:26.085
01:47:48.670 : en:01:47:48.670
01:56:02.622 : en:01:56:02.622
02:02:54.909 : en:02:02:54.909


pb.wtf



Скачать Пятая Влacть через торрент http://i33.fastpic.ru/big/2014/0305/34/9aa7a43231cfbd7353863001a43c8334.jpg Скачать фильм Пятая Влacть через торрент бесплантно в хорошем качестве Описание: В мире, где информация ценится превыше всего, а утечка сведений под грифом «секретно» может вызвать необратимые последствия, сайт ... 9.3 10 6
Info! Золотая раздача, скачанное не засчитывается.
Торрент: Зарегистрирован [2014-03-05 12:05] · скачан: 147 раз
Статус: √ проверено
Размер: 9.22 GB
Как cкачать? Как скачать Пятая Влacть через торрент | qTorrent

28-11-2019 20:33  

Отключить всю рекламу на сайте

    Дорогой пользователь! Огромная просьба, поблагодарите релизера, оцените раздачу и оставьте свои комментарий, если Вы скачали Пятая Влacть через торрент бесплатно! Внесите свою лепту в развитие PiratBit!
    Комментировать посты могут только пользователи прошедшие не сложную регистрацию
    Показать сообщения:    

    Пятая Влacть через торрент
    Скачать бесплатно Пятая Влacть
    Пятая Влacть скачать торрент
    Пятая Влacть смотреть онлайн
    Cкачать фильм Пятая Влacть бесплатно
    Пятая Влacть скачать торрент в хорошем качестве
    Пятая Влacть смотреть онлайн бесплатно в хорошем качестве


    Вы не можете начинать темы
    Вы не можете отвечать на сообщения
    Вы не можете редактировать свои сообщения
    Вы не можете удалять свои сообщения
    Вы не можете голосовать в опросах
    Вы не можете прикреплять файлы к сообщениям
    Вы можете скачивать файлы