Присоединяйтесь к нам в Telegram!, здесь всегда актуальный адрес сайта, оперативная поддержка и многое другое!!

>

5.9

iTunes

7.4

iTunes

9.4

1 сезон

1

7.4

2 сезон

7.2

iTunes

7.3

1 сезон

13

6.1

iTunes

8.3

GOG

30

ULTIMATE

pack

9.9

Лицензия

ВАЖНО

ИГРА 18+

pack

7.3

RePack

MK11

7.7

RePack

jed

7.8

RePack

fifa19

8.5

RePack

RDR2

RePack

NEED FOR SPEED™ PAYBACK

5 сезон

9 сезон

Бесстыжие 9 сезон

Все сериалы

все сериалы на PB.wtf

RePack

FAR CRY 5

Anonymous, доброй ночи, мы катастрофически не успеваем собрать деньги на оплату серверов, помогите нам пожалуйста 5,10,15р., для нас важна любая помощь . В качестве благодарности мы отключим Вам всю рекламу на сайте (укажите свой ник в строку Ваше имя)!

×
  
Magnet ссылка

DVJ Bazuka - Like a G SEX / My Edited [2013 г., Club, 720p-AVC] pb.wtf

DVJ Bazuka - Like a G SEX через торрент pb.wtf

Размер: 136 MB | Добавлен: 7 лет 8 мес. назад | Торрент скачан:315 раз
Смотреть онлайн DVJ Bazuka - Like a G SEX | Скачать    Ребята, помогите собрать деньги на оплату серверов!!!

05-03-2014 21:19 DVJ Bazuka - Like a G SEX Скачать торрент  

DVJ Bazuka - Like a G SEX / My Edited
Год выпуска: 2013
Жанр: Club,
Продолжительность: 00:05:16

Качество: 720p
Формат: MPEG4
Видео кодек: avc1
Аудио кодек: AAC
Видео: AVC, 1280x720(16x9), 29.970 fps, 3 466 Kbps
Аудио: AAC, 44100Hz stereo, 128 Kbps
скриншот   скриншот   скриншот   скриншот   скриншот   скриншот   скриншот  

Format : MPEG-4
Format profile : Sony PSP
Codec ID : MSNV
File size : 136 MiB
Duration : 5mn 16s
Overall bit rate : 3 600 Kbps
Encoded date : UTC 2013-09-15 16:00:14
Tagged date : UTC 2013-09-15 16:00:14
Writing library : AVS

Video
ID : 1
Format : AVC
Format/Info : Advanced Video Codec
Format profile : Main@L4.1
Format settings, CABAC : Yes
Format settings, ReFrames : 2 frames
Codec ID : avc1
Codec ID/Info : Advanced Video Coding
Duration : 5mn 16s
Bit rate mode : Variable
Bit rate : 3 466 Kbps
Width : 1 280 pixels
Height : 720 pixels
Display aspect ratio : 16:9
Frame rate mode : Constant
Frame rate : 29.970 fps
Resolution : 24 bits
Colorimetry : 4:2:0
Scan type : Progressive
Bits/(Pixel*Frame) : 0.125
Stream size : 131 MiB (96%)
Encoded date : UTC 2013-09-15 16:00:14
Tagged date : UTC 2013-09-15 16:00:14

Audio
ID : 2
Format : AAC
Format/Info : Advanced Audio Codec
Format version : Version 4
Format profile : LC
Format settings, SBR : No
Codec ID : 40
Duration : 5mn 16s
Bit rate mode : Constant
Bit rate : 126 Kbps
Nominal bit rate : 128 Kbps
Channel(s) : 2 channels
Channel positions : L R
Sampling rate : 44.1 KHz
Resolution : 16 bits
Stream size : 4.73 MiB (3%)
Encoded date : UTC 2013-09-15 16:00:14
Tagged date : UTC 2013-09-15 16:00:14

pb.wtf



Скачать DVJ Bazuka - Like a G SEX через торрент https://pic1.kartinco.top/images/61/sr472.jpg Скачать, смотреть онлайн DVJ Bazuka - Like a G SEX бесплантно в хорошем качестве Год выпуска: 2013 Жанр: Club,Продолжительность: ... 10 10 7
Торрент: Зарегистрирован [2014-03-05 21:19] · скачан: 315 раз
Статус: √ проверено
Размер: 136 MB
Как cкачать? Как скачать DVJ Bazuka - Like a G SEX через торрент | UTorrent



Последний раз редактировалось: Night shift (2014-03-18 22:36), всего редактировалось 1 раз

28-11-2019 20:33  

Отключить всю рекламу на сайте

06-03-2014 12:24 DVJ Bazuka - Like a G SEX Скачать торрент  

супер клипpb.wtf



06-03-2014 14:05 DVJ Bazuka - Like a G SEX Скачать торрент  

хохол66 писал(а):

супер клип

скриншот  
СПС pb.wtf



    Дорогой пользователь! Огромная просьба, поблагодарите релизера, оцените раздачу и оставьте свои комментарий, если Вы скачали DVJ Bazuka - Like a G SEX через торрент бесплатно!
    Комментировать посты могут только пользователи прошедшие не сложную регистрацию
    Показать сообщения:    

    DVJ Bazuka - Like a G SEX через торрент
    Скачать бесплатно DVJ Bazuka - Like a G SEX
    DVJ Bazuka - Like a G SEX скачать торрент
    DVJ Bazuka - Like a G SEX смотреть онлайн
    Cкачать фильм DVJ Bazuka - Like a G SEX бесплатно
    DVJ Bazuka - Like a G SEX скачать торрент в хорошем качестве
    DVJ Bazuka - Like a G SEX смотреть онлайн бесплатно в хорошем качестве


    Вы не можете начинать темы
    Вы не можете отвечать на сообщения
    Вы не можете редактировать свои сообщения
    Вы не можете удалять свои сообщения
    Вы не можете голосовать в опросах
    Вы не можете прикреплять файлы к сообщениям
    Вы можете скачивать файлы