2 сезон

iTunes

MVO

1

2 сезон

iTunes

iTunes

1 сезон

RePack

30

Ultimate

ВАЖНО

ИГРА 18+

pack

RePack

MK11
pack

Легкие деньги

RePack

jed

RePack

fifa19

RePack

RDR2

RePack

NEED FOR SPEED™ PAYBACK

4 сезон

9 сезон

Бесстыжие 9 сезон

Все сериалы

все сериалы на PB.wtf

RePack

FAR CRY 5

Anonymous, доброй ночи, мы не успеваем собрать деньги на оплату серверов за декабрь и январь, помогите нам пожалуйста в это трудное время. В качестве благодарности мы отключим Вам всю рекламу на сайте (укажите свой ник в строку Ваше имя)!

×
  
Magnet ссылка

Из пекла / Out of the Furnace (Скотт Купер / Scott Cooper) [ 2013 , США, Великобритания , триллер, драма, криминал , BDRip-AVC ]DVO+Английский pb.wtf

Из пекла через торрент pb.wtf

Размер: 3.24 GB | Добавлен: 6 лет 10 мес. назад | Торрент скачан:562 раза
Скачать  

06-03-2014 03:04 Из пекла Скачать торрент  

Из пекла / Out of the Furnace«Иногда ваши сражения, выбирают вас»
Год выпуска: 2013
Страна: США, Великобритания
Жанр: триллер, драма, криминал
Продолжительность: 01:56:07
Перевод: Двухголосый закадровый, любительский (Дмитрий Чепусов & Анастасия Флигина) + любительский двухголосый (Студия "Paradox")
Субтитры: Вшитые отключаемые, Русские, Английские (Full, SDH, SDH-Colored)

Режиссер: Скотт Купер / Scott Cooper
Сценарий: Брэд Ингелсби / Brad Ingelsby, Скотт Купер / Scott Cooper
Продюсер: Райан Кэвэна / Ryan Kavanaugh, Дженнифер Дэвиссон / Jennifer Davisson, Ридли Скотт / Ridley Scott, Тони Скотт / Tony Scott, Майкл Костиган / Michael Costigan
Оператор: Масанобу Такаянаги / Masanobu Takayanagi
Композитор: Дикон Хинчклифф / Dickon Hinchcliffe

В ролях: Кристиан Бэйл (Russell Baze), Вуди Харрельсон (Harlan DeGroat), Кейси Аффлек (Rodney Baze Jr.), Форест Уитакер (Chief Wesley Barnes), Уиллем Дефо (John Petty), Зои Салдана (Lena Taylor), Сэм Шепард (Gerald «Red» Baze), Дендри Тейлор (DeGroat's Date), Карл Киарфалио (Man at Drive In), Нэнси Моссер (Woman at Drive In), Бинго О’Мэлли (Rodney Baze Sr.), Том Бауэр (Dan Dugan)

Бюджет: $22 000 000
Сборы в США: $11 330 849

Мировая премьера: 9 ноября 2013

Описание: Когда Родни Бэйз таинственно исчезает, а правоохранительные органы при этом действуют недостаточно быстро, его старший брат Рассел берет дело в свои руки, чтобы добиться справедливости.

Рейтинг
kinopoisk.ru: 6.598 (2947)
imdb.com: 6.90 (23 243)
MPAA: R - Лицам до 17 лет обязательно присутствие взрослого

Качество: BDRip-AVC
Формат: MKV
Видео кодек: AVC
Аудио кодек: AC3
Видео: 1024*426 (2.40:1), 2885 kbps, 23,976 fps, 0,276 bpp, AVC
Аудио №1: Русский, 448 Кбит/сек, 48,0 КГц, 16 бит, 6 каналов, AC-3 [Д.Чепусов & А.Флигина]
Аудио №2: Русский, 224 Кбит/сек, 48,0 КГц, 16 бит, 2 канала, AC-3 [Студия "Paradox"]
Аудио №3: Английский, 448 Кбит/сек, 48,0 КГц, 16 бит, 6 каналов, AC-3
Внимание! Присутствует ненормативная лексика (DVO Д.Чепусов & А.Флигина)
Общее
Кол-во : 279
Кол-во потоков такого типа : 1
Тип потока : General
Тип потока : Общее
Идентификатор типа потока : 0
Inform : Matroska: 3,24 Гбайт, 1 ч. 56 м.
Уникальный идентификатор : 220901903182561591324041567068343559443
Уникальный идентификатор : 220901903182561591324041567068343559443 (0xA63028B4F448E925A7F2A57895E8E513)
Кол-во видеопотоков : 1
Кол-во аудиопотоков : 3
Кол-во текстовых потоков : 4
Кол-во потоков меню : 1
Video_Format_List : AVC
Video_Format_WithHint_List : AVC
Видеокодеки : AVC
Video_Language_List : English
Audio_Format_List : AC-3 / AC-3 / AC-3
Audio_Format_WithHint_List : AC-3 / AC-3 / AC-3
Аудиокодеки : AC3 / AC3 / AC3
Audio_Language_List : Russian / Russian / English
Text_Format_List : UTF-8 / UTF-8 / UTF-8 / UTF-8
Text_Format_WithHint_List : UTF-8 / UTF-8 / UTF-8 / UTF-8
Текстовые кодеки : UTF-8 / UTF-8 / UTF-8 / UTF-8
Text_Language_List : Russian / English / English / English
Полное имя : D:ФильмыИз пекла.mkv
Имя папки : D:Фильмы
Имя файла : Из пекла
Расширение : mkv
Формат : Matroska
Формат : Matroska
Формат/Ссылка : http://packs.matroska.org/
Формат/Используется в : mkv mk3d mka mks
Коммерческое название : Matroska
Версия формата : Version 2
Кодек : Matroska
Кодек : Matroska
Кодек/Ссылка : http://packs.matroska.org/
Кодек/Используется в : mkv mk3d mka mks
Размер файла : 3479150713
Размер файла : 3,24 Гбайт
Размер файла : 3 Гбайт
Размер файла : 3,2 Гбайт
Размер файла : 3,24 Гбайт
Размер файла : 3,240 Гбайт
Продолжительность : 6967961
Продолжительность : 1 ч. 56 м.
Продолжительность : 1 ч. 56 м. 7 с. 961 мс.
Продолжительность : 1 ч. 56 м.
Продолжительность : 01:56:07.961
Общий поток : 3994455
Общий поток : 3994 Кбит/сек
Размер потока : 69232548
Размер потока : 66,0 Мбайт (2%)
Размер потока : 66 Мбайт
Размер потока : 66 Мбайт
Размер потока : 66,0 Мбайт
Размер потока : 66,03 Мбайт
Размер потока : 66,0 Мбайт (2%)
Пропорции потока : 0.01990
Заголовок : -=MediaClub - Odessit=-
Название фильма : -=MediaClub - Odessit=-
Дата кодирования : UTC 2014-03-05 21:10:53
Дата файла : UTC 2014-03-06 01:48:44.544
Дата файла (местная) : 2014-03-06 08:48:44.544
Дата изменения файла : UTC 2014-03-06 01:46:54.960
Дата изменения файла (местная) : 2014-03-06 08:46:54.960
Программа кодирования : mkvmerge v2.9.9 ('Tutu') built on Nov 25 2009 21:13:32
Библиотека кодирования : libebml v0.7.9 + libmatroska v0.8.1
Библиотека кодирования : libebml v0.7.9 + libmatroska v0.8.1

Видео
Кол-во : 248
Кол-во потоков такого типа : 1
Тип потока : Video
Тип потока : Видео
Идентификатор типа потока : 0
StreamOrder : 0
Inform : 2885 Кбит/сек, 1024*426 (2,40:1), в 23,976 кадра/сек, AVC (High@L4.1) (CABAC / 10 Ref Frames)
Идентификатор : 1
Идентификатор : 1
Уникальный идентификатор : 4118385814
Формат : AVC
Формат/Информация : Advanced Video Codec
Формат/Ссылка : http://developers.videolan.org/x264.html
Коммерческое название : AVC
Профиль формата : High@L4.1
Настройки формата : CABAC / 10 Ref Frames
Параметр CABAC формата : Yes
Параметр CABAC формата : Да
Параметр ReFrames формата : 10
Параметр ReFrames формата : 10 кадров
Интернет-тип носителя : video/H264
Идентификатор кодека : V_MPEG4/ISO/AVC
Идентификатор кодека/Ссылка : http://ffdshow-tryout.sourceforge.net/
Кодек : V_MPEG4/ISO/AVC
Кодек : AVC
Кодек/Семейство : AVC
Кодек/Информация : Advanced Video Codec
Кодек/Ссылка : http://ffdshow-tryout.sourceforge.net/
Профиль кодека : High@L4.1
Настройки кодека : CABAC / 10 Ref Frames
Параметр CABAC кодека : Yes
Codec_Settings_RefFrames : 10
Продолжительность : 6967968
Продолжительность : 1 ч. 56 м.
Продолжительность : 1 ч. 56 м. 7 с. 968 мс.
Продолжительность : 1 ч. 56 м.
Продолжительность : 01:56:07.968
Битрейт : 2885000
Битрейт : 2885 Кбит/сек
Ширина : 1024
Ширина : 1024 пикселя
Высота : 426
Высота : 426 пикселей
Пропорции пикселя : 1.000
Соотношение сторон : 2.404
Соотношение сторон : 2,40:1
Режим частоты кадров : CFR
Режим частоты кадров : Постоянный
Частота кадров : 23.976
Частота кадров : 23,976 кадра/сек
Счётчик кадров : 167064
Разрешение : 8
Разрешение : 8 бит
Колориметрия : 4:2:0
Цветовое пространство : YUV
Субдискретизация насыщенности : 4:2:0
Битовая глубина : 8
Битовая глубина : 8 бит
Тип развёртки : Progressive
Тип развёртки : Прогрессивная
Переплетение : PPF
Переплетение : Прогрессивная
Бит/(Пиксели*Кадры) : 0.276
Задержка : 0
Задержка : 00:00:00.000
Задержка в оригинале : Container
Задержка в оригинале : Контейнер
Размер потока : 2434403625
Размер потока : 2,27 Гбайт (70%)
Размер потока : 2 Гбайт
Размер потока : 2,3 Гбайт
Размер потока : 2,27 Гбайт
Размер потока : 2,267 Гбайт
Размер потока : 2,27 Гбайт (70%)
Пропорции потока : 0.69971
Библиотека кодирования : x264 - core 142 r2389+41 02cb608 tMod [8-bit@4:2:0 X86_64]
Библиотека кодирования : x264 core 142 r2389+41 02cb608 tMod [8-bit@4:2:0 X86_64]
Библиотека кодирования/Имя : x264
Библиотека кодирования/Version : core 142 r2389+41 02cb608 tMod [8-bit@4:2:0 X86_64]
Настройки программы : cabac=1 / ref=10 / deblock=1:-3:-3 / analyse=0x3:0x113 / me=umh / subme=11 / psy=1 / fade_compensate=0.00 / psy_rd=1.00:0.10 / mixed_ref=1 / me_range=64 / chroma_me=1 / trellis=2 / 8x8dct=1 / cqm=0 / deadzone=21,11 / fast_pskip=0 / chroma_qp_offset=-3 / threads=6 / lookahead_threads=1 / sliced_threads=0 / nr=0 / decimate=0 / interlaced=0 / bluray_compat=0 / constrained_intra=0 / fgo=0 / bframes=12 / b_pyramid=2 / b_adapt=2 / b_bias=0 / direct=3 / weightb=1 / open_gop=0 / weightp=2 / keyint=240 / keyint_min=23 / scenecut=40 / intra_refresh=0 / rc=2pass / mbtree=0 / bitrate=2885 / ratetol=1.0 / qcomp=0.60 / qpmin=0:0:0 / qpmax=69:69:69 / qpstep=4 / cplxblur=20.0 / qblur=0.5 / ip_ratio=1.40 / pb_ratio=1.30 / aq=1:0.80 / aq-sensitivity=10.00 / aq-factor=1.00:1.00:1.00 / aq2=0 / aq3=0
Default : No
Default : Нет
Forced : No
Forced : Нет

Аудио #1
Кол-во : 245
Кол-во потоков такого типа : 3
Тип потока : Audio
Тип потока : Аудио
Идентификатор типа потока : 0
Позиция идентификатора типа потока : 1
StreamOrder : 1
Inform : Russian, 448 Кбит/сек, 48,0 КГц, 16 бит, 6 каналов, AC-3
Идентификатор : 2
Идентификатор : 2
Уникальный идентификатор : 1730813860
Формат : AC-3
Формат/Информация : Audio Coding 3
Коммерческое название : AC-3
Расширение режима : CM (complete main)
Параметр Endianness формата : Big
Идентификатор кодека : A_AC3
Кодек : AC3
Кодек : AC3
Кодек/Семейство : AC3
Кодек/Информация : Dolby AC3
Продолжительность : 6967961
Продолжительность : 1 ч. 56 м.
Продолжительность : 1 ч. 56 м. 7 с. 961 мс.
Продолжительность : 1 ч. 56 м.
Продолжительность : 01:56:07.961
Вид битрейта : CBR
Вид битрейта : Постоянный
Битрейт : 448000
Битрейт : 448 Кбит/сек
Каналы : 6
Каналы : 6 каналов
Расположение каналов : Front: L C R, Side: L R, LFE
Расположение каналов : 3/2/0.1
Частота : 48000
Частота : 48,0 КГц
Количество образцов : 334462128
Разрешение : 16
Разрешение : 16 бит
Битовая глубина : 16
Битовая глубина : 16 бит
Метод сжатия : Lossy
Метод сжатия : С потерями
Задержка : 0
Задержка : 00:00:00.000
Задержка в оригинале : Container
Задержка в оригинале : Контейнер
Задержка видео : 0
Задержка видео : 0
Размер потока : 390205816
Размер потока : 372 Мбайт (11%)
Размер потока : 372 Мбайт
Размер потока : 372 Мбайт
Размер потока : 372 Мбайт
Размер потока : 372,1 Мбайт
Размер потока : 372 Мбайт (11%)
Пропорции потока : 0.11216
Заголовок : AC3.448.Kbps (6ch) Russian (DVO Дмитрий Чепусов & Анастасия Флигина)
Язык : ru
Язык : Russian
Язык : Russian
Язык : ru
Язык : rus
Язык : ru
Default : No
Default : Нет
Forced : No
Forced : Нет
dialnorm : -27
dialnorm/String : -27 dB
compr : -0.28
compr/String : -0.28 dB
dynrng : -0.86
dynrng/String : -0.86 dB
bsid : 8
dialnorm_Average : -27
dialnorm_Average/String : -27 dB
dialnorm_Minimum : -27
dialnorm_Minimum/String : -27 dB
dialnorm_Maximum : -27
dialnorm_Maximum/String : -27 dB
dialnorm_Count : 2
compr_Average : -0.28
compr_Average/String : -0.28 dB
compr_Minimum : -0.28
compr_Minimum/String : -0.28 dB
compr_Maximum : -0.28
compr_Maximum/String : -0.28 dB
compr_Count : 2
dynrng_Average : -0.86
dynrng_Average/String : -0.86 dB
dynrng_Minimum : -0.86
dynrng_Minimum/String : -0.86 dB
dynrng_Maximum : -0.86
dynrng_Maximum/String : -0.86 dB
dynrng_Count : 2

Аудио #2
Кол-во : 228
Кол-во потоков такого типа : 3
Тип потока : Audio
Тип потока : Аудио
Идентификатор типа потока : 1
Позиция идентификатора типа потока : 2
StreamOrder : 2
Inform : Russian, 224 Кбит/сек, 48,0 КГц, 16 бит, 2 канала, AC-3
Идентификатор : 3
Идентификатор : 3
Уникальный идентификатор : 2201620871
Формат : AC-3
Формат/Информация : Audio Coding 3
Коммерческое название : AC-3
Расширение режима : CM (complete main)
Параметр Endianness формата : Big
Идентификатор кодека : A_AC3
Кодек : AC3
Кодек : AC3
Кодек/Семейство : AC3
Кодек/Информация : Dolby AC3
Продолжительность : 6967961
Продолжительность : 1 ч. 56 м.
Продолжительность : 1 ч. 56 м. 7 с. 961 мс.
Продолжительность : 1 ч. 56 м.
Продолжительность : 01:56:07.961
Вид битрейта : CBR
Вид битрейта : Постоянный
Битрейт : 224000
Битрейт : 224 Кбит/сек
Каналы : 2
Каналы : 2 канала
Расположение каналов : Front: L R
Расположение каналов : 2/0/0
Частота : 48000
Частота : 48,0 КГц
Количество образцов : 334462128
Разрешение : 16
Разрешение : 16 бит
Битовая глубина : 16
Битовая глубина : 16 бит
Метод сжатия : Lossy
Метод сжатия : С потерями
Задержка : 0
Задержка : 00:00:00.000
Задержка в оригинале : Container
Задержка в оригинале : Контейнер
Задержка видео : 0
Задержка видео : 0
Размер потока : 195102908
Размер потока : 186 Мбайт (6%)
Размер потока : 186 Мбайт
Размер потока : 186 Мбайт
Размер потока : 186 Мбайт
Размер потока : 186,1 Мбайт
Размер потока : 186 Мбайт (6%)
Пропорции потока : 0.05608
Заголовок : AC3.224.Kbps (2ch) Russian (DVO Студия "Paradox")
Язык : ru
Язык : Russian
Язык : Russian
Язык : ru
Язык : rus
Язык : ru
Default : No
Default : Нет
Forced : No
Forced : Нет
dsurmod : 0
dialnorm : -31
dialnorm/String : -31 dB
bsid : 8
dialnorm_Average : -31
dialnorm_Average/String : -31 dB
dialnorm_Minimum : -31
dialnorm_Minimum/String : -31 dB
dialnorm_Maximum : -31
dialnorm_Maximum/String : -31 dB
dialnorm_Count : 2

Аудио #3
Кол-во : 227
Кол-во потоков такого типа : 3
Тип потока : Audio
Тип потока : Аудио
Идентификатор типа потока : 2
Позиция идентификатора типа потока : 3
StreamOrder : 3
Идентификатор : 4
Идентификатор : 4
Уникальный идентификатор : 1513550743
Формат : AC-3
Формат/Информация : Audio Coding 3
Коммерческое название : AC-3
Расширение режима : CM (complete main)
Параметр Endianness формата : Big
Идентификатор кодека : A_AC3
Кодек : AC3
Кодек : AC3
Кодек/Семейство : AC3
Кодек/Информация : Dolby AC3
Продолжительность : 6967961
Продолжительность : 1 ч. 56 м.
Продолжительность : 1 ч. 56 м. 7 с. 961 мс.
Продолжительность : 1 ч. 56 м.
Продолжительность : 01:56:07.961
Вид битрейта : CBR
Вид битрейта : Постоянный
Битрейт : 448000
Битрейт : 448 Кбит/сек
Каналы : 6
Каналы : 6 каналов
Расположение каналов : Front: L C R, Side: L R, LFE
Расположение каналов : 3/2/0.1
Частота : 48000
Частота : 48,0 КГц
Количество образцов : 334462128
Разрешение : 16
Разрешение : 16 бит
Битовая глубина : 16
Битовая глубина : 16 бит
Метод сжатия : Lossy
Метод сжатия : С потерями
Задержка : 0
Задержка : 00:00:00.000
Задержка в оригинале : Container
Задержка в оригинале : Контейнер
Задержка видео : 0
Задержка видео : 0
Размер потока : 390205816
Размер потока : 372 Мбайт (11%)
Размер потока : 372 Мбайт
Размер потока : 372 Мбайт
Размер потока : 372 Мбайт
Размер потока : 372,1 Мбайт
Размер потока : 372 Мбайт (11%)
Пропорции потока : 0.11216
Заголовок : AC3.448.Kbps (6ch) English
Язык : en
Язык : English
Язык : English
Язык : en
Язык : eng
Язык : en
Default : No
Default : Нет
Forced : No
Forced : Нет
dialnorm : -31
dialnorm/String : -31 dB
bsid : 8
dialnorm_Average : -31
dialnorm_Average/String : -31 dB
dialnorm_Minimum : -31
dialnorm_Minimum/String : -31 dB
dialnorm_Maximum : -31
dialnorm_Maximum/String : -31 dB
dialnorm_Count : 2

Текст #1
Кол-во : 192
Кол-во потоков такого типа : 4
Тип потока : Text
Тип потока : Текст
Идентификатор типа потока : 0
Позиция идентификатора типа потока : 1
StreamOrder : 4
Inform : Russian, UTF-8
Идентификатор : 5
Идентификатор : 5
Уникальный идентификатор : 3256625554
Формат : UTF-8
Коммерческое название : UTF-8
Идентификатор кодека : S_TEXT/UTF8
Идентификатор кодека/Информация : UTF-8 Plain Text
Кодек : S_TEXT/UTF8
Кодек : UTF-8
Кодек/Информация : UTF-8 Plain Text
Заголовок : Russian (Full)
Язык : ru
Язык : Russian
Язык : Russian
Язык : ru
Язык : rus
Язык : ru
Default : No
Default : Нет
Forced : No
Forced : Нет

Текст #2
Кол-во : 192
Кол-во потоков такого типа : 4
Тип потока : Text
Тип потока : Текст
Идентификатор типа потока : 1
Позиция идентификатора типа потока : 2
StreamOrder : 5
Inform : English, UTF-8
Идентификатор : 6
Идентификатор : 6
Уникальный идентификатор : 2408180925
Формат : UTF-8
Коммерческое название : UTF-8
Идентификатор кодека : S_TEXT/UTF8
Идентификатор кодека/Информация : UTF-8 Plain Text
Кодек : S_TEXT/UTF8
Кодек : UTF-8
Кодек/Информация : UTF-8 Plain Text
Заголовок : English (Full)
Язык : en
Язык : English
Язык : English
Язык : en
Язык : eng
Язык : en
Default : No
Default : Нет
Forced : No
Forced : Нет

Текст #3
Кол-во : 192
Кол-во потоков такого типа : 4
Тип потока : Text
Тип потока : Текст
Идентификатор типа потока : 2
Позиция идентификатора типа потока : 3
StreamOrder : 6
Inform : English, UTF-8
Идентификатор : 7
Идентификатор : 7
Уникальный идентификатор : 2721820316
Формат : UTF-8
Коммерческое название : UTF-8
Идентификатор кодека : S_TEXT/UTF8
Идентификатор кодека/Информация : UTF-8 Plain Text
Кодек : S_TEXT/UTF8
Кодек : UTF-8
Кодек/Информация : UTF-8 Plain Text
Заголовок : English (SDH)
Язык : en
Язык : English
Язык : English
Язык : en
Язык : eng
Язык : en
Default : No
Default : Нет
Forced : No
Forced : Нет

Текст #4
Кол-во : 192
Кол-во потоков такого типа : 4
Тип потока : Text
Тип потока : Текст
Идентификатор типа потока : 3
Позиция идентификатора типа потока : 4
StreamOrder : 7
Идентификатор : 8
Идентификатор : 8
Уникальный идентификатор : 2216760494
Формат : UTF-8
Коммерческое название : UTF-8
Идентификатор кодека : S_TEXT/UTF8
Идентификатор кодека/Информация : UTF-8 Plain Text
Кодек : S_TEXT/UTF8
Кодек : UTF-8
Кодек/Информация : UTF-8 Plain Text
Заголовок : English (SDH-Colored)
Язык : en
Язык : English
Язык : English
Язык : en
Язык : eng
Язык : en
Default : No
Default : Нет
Forced : No
Forced : Нет

Меню
Кол-во : 97
Кол-во потоков такого типа : 1
Тип потока : Menu
Тип потока : Меню
Идентификатор типа потока : 0
Chapters_Pos_Begin : 73
Chapters_Pos_End : 97
00:00:00.000 : en:00:00:00.000
00:04:54.669 : en:00:04:54.669
00:09:02.709 : en:00:09:02.709
00:12:11.105 : en:00:12:11.105
00:15:39.856 : en:00:15:39.856
00:17:55.074 : en:00:17:55.074
00:21:13.397 : en:00:21:13.397
00:23:40.961 : en:00:23:40.961
00:28:09.646 : en:00:28:09.646
00:33:17.162 : en:00:33:17.162
00:39:15.353 : en:00:39:15.353
00:45:26.223 : en:00:45:26.223
00:53:10.020 : en:00:53:10.020
01:01:09.666 : en:01:01:09.666
01:05:31.886 : en:01:05:31.886
01:10:08.579 : en:01:10:08.579
01:12:25.383 : en:01:12:25.383
01:21:45.192 : en:01:21:45.192
01:27:18.024 : en:01:27:18.024
01:30:31.593 : en:01:30:31.593
01:34:18.736 : en:01:34:18.736
01:37:58.039 : en:01:37:58.039
01:42:51.916 : en:01:42:51.916
01:47:49.296 : en:01:47:49.296





pb.wtf



Скачать Из пекла через торрент http://pic.kartinco.top/images/6/7tpll.jpg Скачать фильм Из пекла через торрент бесплантно в хорошем качестве Описание: Когда Родни Бэйз таинственно исчезает, а правоохранительные органы при этом действуют недостаточно быстро, его старший брат ... 9.5 10 17
Торрент: Зарегистрирован [2014-03-06 03:04] · скачан: 562 раз
Статус: T временная
Размер: 3.24 GB
Как cкачать? Как скачать Из пекла через торрент | UTorrent



Последний раз редактировалось: GEKADOL (2014-04-14 03:54), всего редактировалось 2 раз(а)

28-11-2019 20:33  

Отключить всю рекламу на сайте

06-03-2014 10:34 Из пекла Скачать торрент  

норм киноpb.wtf



06-03-2014 15:24 Из пекла Скачать торрент  

Цитата:

Качество: BDRip

Цитата:

Видео кодек: AVC

Цитата:

Видео: 1024*426

=>
BDRip-AVCpb.wtf



    Дорогой пользователь! Огромная просьба, поблагодарите релизера, оцените раздачу и оставьте свои комментарий, если Вы скачали Из пекла через торрент бесплатно! Внесите свою лепту в развитие PiratBit!
    Комментировать посты могут только пользователи прошедшие не сложную регистрацию
    Показать сообщения:    

    Из пекла через торрент
    Скачать бесплатно Из пекла
    Из пекла скачать торрент
    Из пекла смотреть онлайн
    Cкачать фильм Из пекла бесплатно
    Из пекла скачать торрент в хорошем качестве
    Из пекла смотреть онлайн бесплатно в хорошем качестве


    Вы не можете начинать темы
    Вы не можете отвечать на сообщения
    Вы не можете редактировать свои сообщения
    Вы не можете удалять свои сообщения
    Вы не можете голосовать в опросах
    Вы не можете прикреплять файлы к сообщениям
    Вы можете скачивать файлы