Ссылка на приватное зеркало нашего сайта всего за 1$. Внимание количество ограничено!!!

2 сезон

iTunes

1 сезон

1

2 сезон

2 сезон

iTunes

1 сезон

RePack

30

Ultimate

ВАЖНО

ИГРА 18+

pack

RePack

MK11
pack

Забери бонус

RePack

jed

!!Акция!!

Alien_Rage

RePack

fifa19

RePack

Assassins Creed: Odyssey

RePack

NEED FOR SPEED™ PAYBACK

4 сезон

9 сезон

Бесстыжие 9 сезон

Все сериалы

все сериалы на PB.wtf

RePack

FAR CRY 5
  

Ты – самое дорогое, что у меня есть / Na xie nian, wo men yi qi zhui de nu hai (Гидденс Ко) (2011, драма, мелодрама, комедия, BDRemux 1080p, VO) pb.wtf

Ты – самое дорогое, что у меня есть через торрент pb.wtf

Размер: 23.4 GB | Добавлен: 6 лет 8 мес. назад | Торрент скачан:13 раз
Скачать  

06-03-2014 05:35 Ты – самое дорогое, что у меня есть Скачать торрент  

Название: Ты – самое дорогое, что у меня есть
Оригинальное название: Na xie nian, wo men yi qi zhui de nu hai
Год выхода: 2011
Жанр: Драма, мелодрама, комедия

Режиссер: Гидденс Ко

В ролях: Жендонг Ке, Мишель Чэнь, Оводог, Чан-Сень Цай, Ван Ван

Описание:
Ко Чин-Тэн, хулиган, озорной задира и плохой ученик. Ему скучно учиться, но он всегда в эпицентре событий школьной жизни. Он не желает взрослеть, заполняя свою жизнь подростковыми выходками. Все его друзья влюблены в отличницу Шэнь Цзяи. Ему на все наплевать до того момента, как его посадили за парту впереди Шэнь Цзяи. Под влиянием Шэнь Цзяи он начинает задумываться о том, кто он такой, и пытаться изменить свою жизнь. Автобиографический фильм, снят по роману Гидденса Ко.


Страна: Тайвань, Sony Music Entertainment, Star Ritz Productions Co.
Продолжительность: 01:49:34
Перевод: Любительский одноголосый (mi24)

Качество: Blu-Ray Remux 1080p
Видео кодек: AVC
Аудио кодек: AC3 / DTS-HD MA
Видео: MPEG-4 AVC, 27.9 Мбит/с, 1920x1080, 24.000 кадр/с
Аудио№1: Русский (AC3, 6 ch, 448 Кбит/с, 48,0 КГц),
Аудио№2: Китайский (DTS-HD MA, 6 ch, 1905 Кбит/с, 48,0 КГц)
Субтитры: Русские (перевод julz_nsk), английские, китайские
Полное имя : E:Раздачи_ENa.xie.nian,wo.men.yi.qi.zhui.de.nu.hai.2011.BDRemux.1080p.NovaLan.mkv
Формат : Matroska
Версия формата : Version 4 / Version 2
Размер файла : 23,4 Гбайт
Продолжительность : 1 ч. 49 м.
Режим общего битрейта : Переменный
Общий поток : 30,6 Мбит/сек
Название фильма : Na xie nian, wo men yi qi zhui de nu hai 2011 - NovaLan
Дата кодирования : UTC 2014-03-05 02:38:06
Программа кодирования : mkvmerge v6.8.0 ('Theme for Great Cities') 64bit built on Mar 2 2014 21:34:26
Библиотека кодирования : libebml v1.3.0 + libmatroska v1.4.1

Видео
Идентификатор : 1
Формат : AVC
Формат/Информация : Advanced Video Codec
Профиль формата : High@L4.1
Параметр CABAC формата : Да
Параметр ReFrames формата : 4 кадра
Идентификатор кодека : V_MPEG4/ISO/AVC
Продолжительность : 1 ч. 49 м.
Вид битрейта : Постоянный
Битрейт : 27,9 Мбит/сек
Номинальный битрейт : 35,0 Мбит/сек
Ширина : 1920 пикселей
Высота : 1080 пикселей
Соотношение сторон : 16:9
Частота кадров : 24,000 кадра/сек
Стандарт вещания : NTSC
Цветовое пространство : YUV
Субдискретизация насыщенности : 4:2:0
Битовая глубина : 8 бит
Тип развёртки : Прогрессивная
Бит/(Пиксели*Кадры) : 0.562
Размер потока : 21,4 Гбайт (91%)
Заголовок : Na xie nian, wo men yi qi zhui de nu hai 2011 - NovaLan
Default : Да
Forced : Нет
Основные цвета : BT.709-5, BT.1361, IEC 61966-2-4, SMPTE RP177
Характеристики трансфера : BT.709-5, BT.1361
Коэффициенты матрицы : BT.709-5, BT.1361, IEC 61966-2-4 709, SMPTE RP177

Аудио #1
Идентификатор : 2
Формат : AC-3
Формат/Информация : Audio Coding 3
Расширение режима : CM (complete main)
Параметр Endianness формата : Big
Идентификатор кодека : A_AC3
Продолжительность : 1 ч. 49 м.
Вид битрейта : Постоянный
Битрейт : 448 Кбит/сек
Каналы : 6 каналов
Расположение каналов : Front: L C R, Side: L R, LFE
Частота : 48,0 КГц
Битовая глубина : 16 бит
Метод сжатия : С потерями
Размер потока : 351 Мбайт (1%)
Язык : Russian
Default : Да
Forced : Нет

Аудио #2
Идентификатор : 3
Формат : DTS
Формат/Информация : Digital Theater Systems
Профиль формата : MA / Core
Идентификатор кодека : A_DTS
Продолжительность : 1 ч. 49 м.
Вид битрейта : Переменный
Битрейт : 1561 Кбит/сек / 1510 Кбит/сек
Каналы : 6 каналов
Расположение каналов : Front: L C R, Side: L R, LFE
Частота : 48,0 КГц
Битовая глубина : 16 бит
Метод сжатия : Без потерь / Lossy
Язык : Chinese
Default : Нет
Forced : Нет

Текст #1
Идентификатор : 4
Формат : PGS
Режим смешивания : zlib
Идентификатор кодека : S_HDMV/PGS
Идентификатор кодека/Информация : The same subtitle format used on BDs/HD-DVDs
Язык : Russian
Default : Да
Forced : Нет

Текст #2
Идентификатор : 5
Формат : PGS
Режим смешивания : zlib
Идентификатор кодека : S_HDMV/PGS
Идентификатор кодека/Информация : The same subtitle format used on BDs/HD-DVDs
Язык : English
Default : Нет
Forced : Нет

Текст #3
Идентификатор : 6
Формат : PGS
Режим смешивания : zlib
Идентификатор кодека : S_HDMV/PGS
Идентификатор кодека/Информация : The same subtitle format used on BDs/HD-DVDs
Язык : Chinese
Default : Нет
Forced : Нет

Текст #4
Идентификатор : 7
Формат : PGS
Режим смешивания : zlib
Идентификатор кодека : S_HDMV/PGS
Идентификатор кодека/Информация : The same subtitle format used on BDs/HD-DVDs
Язык : Chinese
Default : Нет
Forced : Нет

Меню
00:00:00.000 : en:Chapter 1
00:14:19.500 : en:Chapter 2
00:24:28.958 : en:Chapter 3
00:38:39.083 : en:Chapter 4
00:50:40.000 : en:Chapter 5
01:04:35.458 : en:Chapter 6
01:17:29.875 : en:Chapter 7
01:34:45.458 : en:Chapter 8
pb.wtf



Скачать Ты – самое дорогое, что у меня есть через торрент http://i59.fastpic.ru/big/2014/0305/c5/8dba6c61280279dfa99b844e4ee6c6c5.jpg Скачать фильм Ты – самое дорогое, что у меня есть через торрент бесплантно в хорошем качестве Описание: Ко Чин-Тэн, хулиган, озорной задира и плохой ученик. Ему скучно учиться, но он всегда в эпицентре событий школьной жизни. Он не ... 10 10 2
Info! Золотая раздача, скачанное не засчитывается.
Торрент: Зарегистрирован [2014-03-06 05:35] · скачан: 13 раз
Статус: √ проверено
Размер: 23.4 GB
Как cкачать? Как скачать Ты – самое дорогое, что у меня есть через торрент | qTorrent

28-11-2019 20:33  

Отключить всю рекламу на сайте

    Дорогой пользователь! Огромная просьба, поблагодарите релизера, оцените раздачу и оставьте свои комментарий, если Вы скачали Ты – самое дорогое, что у меня есть через торрент бесплатно! Внесите свою лепту в развитие PiratBit!
    Комментировать посты могут только пользователи прошедшие не сложную регистрацию
    Показать сообщения:    

    Ты – самое дорогое, что у меня есть через торрент
    Скачать бесплатно Ты – самое дорогое, что у меня есть
    Ты – самое дорогое, что у меня есть скачать торрент
    Ты – самое дорогое, что у меня есть смотреть онлайн
    Cкачать фильм Ты – самое дорогое, что у меня есть бесплатно
    Ты – самое дорогое, что у меня есть скачать торрент в хорошем качестве
    Ты – самое дорогое, что у меня есть смотреть онлайн бесплатно в хорошем качестве


    Вы не можете начинать темы
    Вы не можете отвечать на сообщения
    Вы не можете редактировать свои сообщения
    Вы не можете удалять свои сообщения
    Вы не можете голосовать в опросах
    Вы не можете прикреплять файлы к сообщениям
    Вы можете скачивать файлы