MEGA SALE -50% FORZA HORIZON 4 ULTIMATE+ВСЕ DLC+ОНЛАЙН всего за 599р. 299 руб. (супер цена). Внимание количество ограничено!!!

iTunes

1+1

iTunes

мы

iTunes

1

iTunes

Чернобыль

1 сезон

Ральф против интернета

Лицензия

ПШазам

Лицензия

Игра престолов

Лицензия

30
pack

ВАЖНО

!!Акция!!

Alien_RageХит недели

RePack

Resident Evil 21

ИГРА 18+

pack

RePack

Metro:Exodus

!!Акция!!

Alien_Rage

RePack

fifa19

RePack

Assassins Creed: Odyssey

RePack

NEED FOR SPEED™ PAYBACK

3 сезон

9 сезон

Бесстыжие 9 сезон

Все сериалы

все сериалы на PB.wtf

RePack

FAR CRY 5
Ребята, катастрофически не хватает 7730р. для оплаты серверов за ИЮЛЬ (всвязи с блокировками трафик упал в 3 раза), 1-2р., выручайте.
  

Роман с камнем + Жемчужина Нила / Romancing the Stone + The Jewel of the Nile (Роберт Земекис, Льюис Тиг) (1984-1985, боевик, мелодрама, комедия, приключения, BDRemux 1080p) pb.wtf

Роман с камнем + Жемчужина Нила через торрент pb.wtf

Размер: 60.43 GB | Добавлен: 5 лет 5 мес. назад | Торрент скачан:28 раз
Скачать  

06-03-2014 08:33 Роман с камнем + Жемчужина Нила Скачать торрент  

Роман с камнем / Romancing the Stone«She's a girl from the big city. He's a reckless soldier of fortune. For a fabulous treasure, they share an adventure no one could imagine... or survive»
Страна: Мексика, США / 20th Century Fox Film Corporation, El Corazon Producciones S.A., Nina Saxon Film Design
Жанр: боевик, мелодрама, комедия, приключения
Год выпуска: 1984
Продолжительность: 01:45:46

Перевод:
Профессиональный (дублированный) - Дубляжная группа киностудии имени М. Горького;
Профессиональный (многоголосый, закадровый): ОРТ, Киномания, Позитив;
Авторский (одноголосый): Гаврилов, Горчаков, Володарский

Cубтитры: русский (форсированный плюс 2 варианта полных), английский
Оригинальная аудиодорожка: английский

Режиссер: Роберт Земекис / Robert Zemeckis

В ролях: Майкл Дуглас, Кэтлин Тёрнер, Дэнни ДеВито, Зак Норман, Альфонсо Арау, Мануэль Охеда, Холланд Тейлор, Мэри Эллен Трейнор, Ив Смит, Джо Несноу...

Роли дублировали: Сергей Сазонтьев, Анна Каменкова, Михаил Кононов, Герман Качин, Владимир Ферапонтов...

Описание: Джоан Уайлдер, автор популярных женских романов, находит в своем почтовом ящике пакет, присланный из Колумбии ее сестрой. Телефонный звонок подтверждает самые страшные опасения — сестра похищена, и похитители требуют вернуть пакет.
Забыв обо всем на свете, Джоан летит на помощь сестре и теряется в первые часы после прилета. Ее пытаются убить, и только вмешательство Джека Колтона, американского наемника, спасет девушку от гибели.
Вместе их ждут экстремальные приключения в джунглях, поиск сокровищ и, конечно, романтическая любовная история.

Качество: BDRemux 1080p / Blu-ray 1080p
Формат: MKV
Видео кодек: AVC
Аудио кодек: AC3
Видео: 1920x1080, MPEG-4 AVC Video, ~23 Mbps avg 1080p / 23,976 fps / 16:9 / High Profile 4.1
Аудио 1: 48 kHz, Dolby AC3, 6 ch, 448 kbps, русский дублированный
Аудио 2: 48 kHz, Dolby AC3, 6 ch, 448 kbps, русский многоголосый ОРТ
Аудио 3: 48 kHz, Dolby AC3, 6 ch, 448 kbps, русский многоголосый Киномания
Аудио 4: 48 kHz, Dolby AC3, 2 ch, 192 kbps, русский многоголосый Позитив
Аудио 5: 48 kHz, Dolby AC3, 2 ch, 192 kbps, русский авторский Гаврилов
Аудио 6: 48 kHz, Dolby AC3, 2 ch, 192 kbps, русский авторский Горчаков
Аудио 7: 48 kHz, Dolby AC3, 2 ch, 192 kbps, русский авторский Володарский
Аудио 8: 48 kHz, Dolby AC3, 2 ch, 256 kbps, украинский многоголосый Новый канал
Аудио 9: 48 kHz/24-Bit, DTS-HD MA 5.1, ~3 Mbps avg, английский
Формат субтитров: SoftSub (srt)

Дополнительно: Фильм разбит на главы, как на оригинальном Blu-ray диске
Общее
Полное имя : Roman.s.kamnem.1984.D.BDRemux.1080p.mkv
Формат : Matroska
Версия формата : Version 4 / Version 2
Размер файла : 29,8 Гбайт
Продолжительность : 1 ч. 45 м.
Режим общего битрейта : Переменный
Общий поток : 40,4 Мбит/сек
Дата кодирования : UTC 2014-01-09 07:51:59
Программа кодирования : mkvmerge v6.5.0 ('Isn't she lovely') built on Oct 20 2013 12:50:05
Библиотека кодирования : libebml v1.3.0 libmatroska v1.4.1

Видео
Идентификатор : 1
Формат : AVC
Формат/Информация : Advanced Video Codec
Профиль формата : High@L4.1
Параметр CABAC формата : Да
Параметр ReFrames формата : 4 кадра
Идентификатор кодека : V_MPEG4/ISO/AVC
Продолжительность : 1 ч. 45 м.
Вид битрейта : Переменный
Максимальный битрейт : 36,0 Мбит/сек
Ширина : 1920 пикселей
Высота : 1080 пикселей
Соотношение сторон : 16:9
Режим частоты кадров : Постоянный
Частота кадров : 23,976 кадра/сек
Цветовое пространство : YUV
Субдискретизация насыщенности : 4:2:0
Битовая глубина : 8 бит
Тип развёртки : Прогрессивная
Язык : English
Default : Да
Forced : Нет
Основные цвета : BT.709
Характеристики трансфера : BT.709
Коэффициенты матрицы : BT.709

Аудио #1
Идентификатор : 2
Формат : AC-3
Формат/Информация : Audio Coding 3
Расширение режима : CM (complete main)
Параметр Endianness формата : Big
Идентификатор кодека : A_AC3
Продолжительность : 1 ч. 45 м.
Вид битрейта : Постоянный
Битрейт : 448 Кбит/сек
Каналы : 6 каналов
Расположение каналов : Front: L C R, Side: L R, LFE
Частота : 48,0 КГц
Битовая глубина : 16 бит
Метод сжатия : С потерями
Размер потока : 339 Мбайт (1%)
Заголовок : DUB
Язык : Russian
Default : Да
Forced : Нет

Аудио #2
Идентификатор : 3
Формат : AC-3
Формат/Информация : Audio Coding 3
Расширение режима : CM (complete main)
Параметр Endianness формата : Big
Идентификатор кодека : A_AC3
Продолжительность : 1 ч. 45 м.
Вид битрейта : Постоянный
Битрейт : 448 Кбит/сек
Каналы : 6 каналов
Расположение каналов : Front: L C R, Side: L R, LFE
Частота : 48,0 КГц
Битовая глубина : 16 бит
Метод сжатия : С потерями
Размер потока : 339 Мбайт (1%)
Заголовок : MVO.ORT
Язык : Russian
Default : Нет
Forced : Нет

Аудио #3
Идентификатор : 4
Формат : AC-3
Формат/Информация : Audio Coding 3
Расширение режима : CM (complete main)
Параметр Endianness формата : Big
Идентификатор кодека : A_AC3
Продолжительность : 1 ч. 45 м.
Вид битрейта : Постоянный
Битрейт : 448 Кбит/сек
Каналы : 6 каналов
Расположение каналов : Front: L C R, Side: L R, LFE
Частота : 48,0 КГц
Битовая глубина : 16 бит
Метод сжатия : С потерями
Размер потока : 339 Мбайт (1%)
Заголовок : MVO.KINOMANIA
Язык : Russian
Default : Нет
Forced : Нет

Аудио #4
Идентификатор : 5
Формат : AC-3
Формат/Информация : Audio Coding 3
Расширение режима : CM (complete main)
Параметр Endianness формата : Big
Идентификатор кодека : A_AC3
Продолжительность : 1 ч. 45 м.
Вид битрейта : Постоянный
Битрейт : 192 Кбит/сек
Каналы : 2 канала
Расположение каналов : Front: L R
Частота : 48,0 КГц
Битовая глубина : 16 бит
Метод сжатия : С потерями
Размер потока : 145 Мбайт (0%)
Заголовок : MVO.POZITIV
Язык : Russian
Default : Нет
Forced : Нет

Аудио #5
Идентификатор : 6
Формат : AC-3
Формат/Информация : Audio Coding 3
Расширение режима : CM (complete main)
Параметр Endianness формата : Big
Идентификатор кодека : A_AC3
Продолжительность : 1 ч. 45 м.
Вид битрейта : Постоянный
Битрейт : 192 Кбит/сек
Каналы : 2 канала
Расположение каналов : Front: L R
Частота : 48,0 КГц
Битовая глубина : 16 бит
Метод сжатия : С потерями
Размер потока : 145 Мбайт (0%)
Заголовок : AVO.GAVRILOV
Язык : Russian
Default : Нет
Forced : Нет

Аудио #6
Идентификатор : 7
Формат : AC-3
Формат/Информация : Audio Coding 3
Расширение режима : CM (complete main)
Параметр Endianness формата : Big
Идентификатор кодека : A_AC3
Продолжительность : 1 ч. 45 м.
Вид битрейта : Постоянный
Битрейт : 192 Кбит/сек
Каналы : 2 канала
Расположение каналов : Front: L R
Частота : 48,0 КГц
Битовая глубина : 16 бит
Метод сжатия : С потерями
Размер потока : 145 Мбайт (0%)
Заголовок : AVO.GORCHAKOV
Язык : Russian
Default : Нет
Forced : Нет

Аудио #7
Идентификатор : 8
Формат : AC-3
Формат/Информация : Audio Coding 3
Расширение режима : CM (complete main)
Параметр Endianness формата : Big
Идентификатор кодека : A_AC3
Продолжительность : 1 ч. 45 м.
Вид битрейта : Постоянный
Битрейт : 192 Кбит/сек
Каналы : 2 канала
Расположение каналов : Front: L R
Частота : 48,0 КГц
Битовая глубина : 16 бит
Метод сжатия : С потерями
Размер потока : 145 Мбайт (0%)
Заголовок : AVO.VOLODARSKIY
Язык : Russian
Default : Нет
Forced : Нет

Аудио #8
Идентификатор : 9
Формат : AC-3
Формат/Информация : Audio Coding 3
Расширение режима : CM (complete main)
Параметр Endianness формата : Big
Идентификатор кодека : A_AC3
Продолжительность : 1 ч. 45 м.
Вид битрейта : Постоянный
Битрейт : 256 Кбит/сек
Каналы : 2 канала
Расположение каналов : Front: L R
Частота : 48,0 КГц
Битовая глубина : 16 бит
Метод сжатия : С потерями
Размер потока : 194 Мбайт (1%)
Заголовок : MVO.NOVYI.KANAL
Язык : Ukrainian
Default : Нет
Forced : Нет

Аудио #9
Идентификатор : 10
Формат : DTS
Формат/Информация : Digital Theater Systems
Профиль формата : MA / Core
Режим : 16
Параметр Endianness формата : Big
Идентификатор кодека : A_DTS
Продолжительность : 1 ч. 45 м.
Вид битрейта : Переменный
Битрейт : Неизвестно / 1509 Кбит/сек
Каналы : 6 каналов
Расположение каналов : Front: L C R, Side: L R, LFE
Частота : 48,0 КГц
Битовая глубина : 24 бит
Метод сжатия : Без потерь / Lossy
Заголовок : DTS.HD.MA
Язык : English
Default : Нет
Forced : Нет

Текст #1
Идентификатор : 11
Формат : UTF-8
Идентификатор кодека : S_TEXT/UTF8
Идентификатор кодека/Информация : UTF-8 Plain Text
Заголовок : FORCED
Язык : Russian
Default : Да
Forced : Нет

Текст #2
Идентификатор : 12
Формат : UTF-8
Идентификатор кодека : S_TEXT/UTF8
Идентификатор кодека/Информация : UTF-8 Plain Text
Заголовок : VAR1
Язык : Russian
Default : Нет
Forced : Нет

Текст #3
Идентификатор : 13
Формат : UTF-8
Идентификатор кодека : S_TEXT/UTF8
Идентификатор кодека/Информация : UTF-8 Plain Text
Заголовок : VAR2
Язык : Russian
Default : Нет
Forced : Нет

Текст #4
Идентификатор : 14
Формат : UTF-8
Идентификатор кодека : S_TEXT/UTF8
Идентификатор кодека/Информация : UTF-8 Plain Text
Язык : English
Default : Нет
Forced : Нет

Меню
00:00:00.000 : en:00:00:00.000
00:00:51.384 : en:00:00:51.384
00:07:45.882 : en:00:07:45.882
00:12:32.376 : en:00:12:32.376
00:17:42.561 : en:00:17:42.561
00:24:38.310 : en:00:24:38.310
00:28:01.388 : en:00:28:01.388
00:33:35.388 : en:00:33:35.388
00:41:54.136 : en:00:41:54.136
00:46:58.106 : en:00:46:58.106
00:49:40.352 : en:00:49:40.352
00:54:15.168 : en:00:54:15.168
01:00:42.639 : en:01:00:42.639
01:05:34.847 : en:01:05:34.847
01:08:15.800 : en:01:08:15.800
01:14:39.433 : en:01:14:39.433
01:16:59.031 : en:01:16:59.031
01:20:15.811 : en:01:20:15.811
01:24:35.862 : en:01:24:35.862
01:26:09.789 : en:01:26:09.789
01:30:39.183 : en:01:30:39.183
01:35:47.992 : en:01:35:47.992
01:40:14.675 : en:01:40:14.675
01:42:43.365 : en:01:42:43.365

Жемчужина Нила / The Jewel of the Nile«They're back again...and romancing a brand new stone»
Страна: США / 20th Century Fox Film Corporation, SLM Production Group, Stone Group Pictures
Жанр: боевик, мелодрама, комедия, приключения
Год выпуска: 1985
Продолжительность: 01:45:55

Перевод:
Профессиональный (многоголосый закадровый) - Киномания, ОРТ, Позитив
Авторский (одногоголосый закадровый) - Гаврилов

Cубтитры: русский, английский
Оригинальная аудиодорожка: английский

Режиссер: Льюис Тиг / Lewis Teague

В ролях: Майкл Дуглас, Кэтлин Тёрнер, Дэнни ДеВито, Спирос Фокас, Эвнер Айзенберг, Пол Дэвид Магид, Ховард Джей Пэттерсон, Рэндал Эдвин Нельсон, Сэмюэл Росс Уильямс, Тимоти Дэниэл Фёрст...

Описание: Герои предыдущей части Джэк и Джоан живут спокойной, размеренной жизнью богатых бездельников. У них есть все, что могут позволить деньги: яхта, виллы, прислуга. Но им скучно.
Скучно друг с другом и этим обществом. Чтобы развлечь себя, Джоан принимает приглашение арабского шейха посетить его восточную резиденцию. Но сказка обернулась кошмаром: арабский красавец похищает Джоан и требует выкуп — «жемчужину».
Джэк, заручившись поддержкой своего нового партнера Ральфа, принимает непростое решение — спасти Джоан. Но есть одно осложнение: Джэку хочет отомстить старый напарник.

Качество: BDRemux 1080p / Blu-ray 1080p
Формат: MKV
Видео кодек: H.264
Аудио кодек: AC3
Видео: 1920x1080, (16:9), 23.976 fps, H.264 ~23 Mbps avg, HIGH@L4.1
Аудио 1: 48 kHz, Dolby AC3, 6 ch, 448 kbps, русский - MVO KINOMANIA
Аудио 2: 48 kHz, Dolby AC3, 6 ch, 448 kbps, русский - MVO ORT
Аудио 3: 48 kHz, Dolby AC3, 2 ch, 192 kbps, русский - MVO POZITIV
Аудио 4: 48 kHz, Dolby AC3, 6 ch, 448 kbps, русский - AVO GAVRILOV
Аудио 5: 48 kHz, Dolby AC3, 2 ch, 192 kbps, украинский - MVO
Аудио 6: 48 kHz/24-Bit, DTS-HD MA 5.1, ~3 Mbps avg, английский
Формат субтитров: SoftSub (srt)

Дополнительно: Фильм разбит на главы, как на оригинальном Blu-ray диске
Общее
Полное имя : Zhemchuzhina.Nila.1985.P.BDRemux.1080p.mkv
Формат : Matroska
Версия формата : Version 4 / Version 2
Размер файла : 30,6 Гбайт
Продолжительность : 1 ч. 45 м.
Режим общего битрейта : Переменный
Общий поток : 41,3 Мбит/сек
Дата кодирования : UTC 2014-03-05 19:59:23
Программа кодирования : mkvmerge v6.8.0 ('Theme for Great Cities') 64bit built on Mar 2 2014 21:34:26
Библиотека кодирования : libebml v1.3.0 libmatroska v1.4.1

Видео
Идентификатор : 1
Формат : AVC
Формат/Информация : Advanced Video Codec
Профиль формата : High@L4.1
Параметр CABAC формата : Да
Параметр ReFrames формата : 3 кадра
Параметр GOP формата : M=3, N=24
Идентификатор кодека : V_MPEG4/ISO/AVC
Продолжительность : 1 ч. 45 м.
Вид битрейта : Переменный
Максимальный битрейт : 40,0 Мбит/сек
Ширина : 1920 пикселей
Высота : 1080 пикселей
Соотношение сторон : 16:9
Режим частоты кадров : Постоянный
Частота кадров : 23,976 кадра/сек
Цветовое пространство : YUV
Субдискретизация насыщенности : 4:2:0
Битовая глубина : 8 бит
Тип развёртки : Прогрессивная
Язык : English
Default : Да
Forced : Нет

Аудио #1
Идентификатор : 2
Формат : AC-3
Формат/Информация : Audio Coding 3
Расширение режима : CM (complete main)
Параметр Endianness формата : Big
Идентификатор кодека : A_AC3
Продолжительность : 1 ч. 45 м.
Вид битрейта : Постоянный
Битрейт : 448 Кбит/сек
Каналы : 6 каналов
Расположение каналов : Front: L C R, Side: L R, LFE
Частота : 48,0 КГц
Битовая глубина : 16 бит
Метод сжатия : С потерями
Задержка видео : 28 мс.
Размер потока : 339 Мбайт (1%)
Заголовок : MVO KINOMANIA
Язык : Russian
Default : Да
Forced : Нет

Аудио #2
Идентификатор : 3
Формат : AC-3
Формат/Информация : Audio Coding 3
Расширение режима : CM (complete main)
Параметр Endianness формата : Big
Идентификатор кодека : A_AC3
Продолжительность : 1 ч. 45 м.
Вид битрейта : Постоянный
Битрейт : 448 Кбит/сек
Каналы : 6 каналов
Расположение каналов : Front: L C R, Side: L R, LFE
Частота : 48,0 КГц
Битовая глубина : 16 бит
Метод сжатия : С потерями
Размер потока : 339 Мбайт (1%)
Заголовок : MVO ORT
Язык : Russian
Default : Нет
Forced : Нет

Аудио #3
Идентификатор : 4
Формат : AC-3
Формат/Информация : Audio Coding 3
Расширение режима : CM (complete main)
Параметр Endianness формата : Big
Идентификатор кодека : A_AC3
Продолжительность : 1 ч. 45 м.
Вид битрейта : Постоянный
Битрейт : 192 Кбит/сек
Каналы : 2 канала
Расположение каналов : Front: L R
Частота : 48,0 КГц
Битовая глубина : 16 бит
Метод сжатия : С потерями
Размер потока : 145 Мбайт (0%)
Заголовок : MVO POZITIV
Язык : Russian
Default : Нет
Forced : Нет

Аудио #4
Идентификатор : 5
Формат : AC-3
Формат/Информация : Audio Coding 3
Расширение режима : CM (complete main)
Параметр Endianness формата : Big
Идентификатор кодека : A_AC3
Продолжительность : 1 ч. 45 м.
Вид битрейта : Постоянный
Битрейт : 448 Кбит/сек
Каналы : 4 канала
Расположение каналов : Front: L C R, Back: C
Частота : 48,0 КГц
Битовая глубина : 16 бит
Метод сжатия : С потерями
Задержка видео : 28 мс.
Размер потока : 339 Мбайт (1%)
Заголовок : AVO GAVRILOV
Язык : Russian
Default : Нет
Forced : Нет

Аудио #5
Идентификатор : 6
Формат : AC-3
Формат/Информация : Audio Coding 3
Расширение режима : CM (complete main)
Параметр Endianness формата : Big
Идентификатор кодека : A_AC3
Продолжительность : 1 ч. 45 м.
Вид битрейта : Постоянный
Битрейт : 256 Кбит/сек
Каналы : 2 канала
Расположение каналов : Front: L R
Частота : 48,0 КГц
Битовая глубина : 16 бит
Метод сжатия : С потерями
Размер потока : 194 Мбайт (1%)
Язык : Ukrainian
Default : Нет
Forced : Нет

Аудио #6
Идентификатор : 7
Формат : DTS
Формат/Информация : Digital Theater Systems
Профиль формата : MA / Core
Режим : 16
Параметр Endianness формата : Big
Идентификатор кодека : A_DTS
Продолжительность : 1 ч. 45 м.
Вид битрейта : Переменный
Битрейт : Неизвестно / 1509 Кбит/сек
Каналы : 6 каналов
Расположение каналов : Front: L C R, Side: L R, LFE
Частота : 48,0 КГц
Битовая глубина : 24 бит
Метод сжатия : Без потерь / Lossy
Задержка видео : 4 мс.
Заголовок : Original
Язык : English
Default : Нет
Forced : Нет

Текст #1
Идентификатор : 8
Формат : UTF-8
Идентификатор кодека : S_TEXT/UTF8
Идентификатор кодека/Информация : UTF-8 Plain Text
Язык : Russian
Default : Нет
Forced : Нет

Текст #2
Идентификатор : 9
Формат : UTF-8
Идентификатор кодека : S_TEXT/UTF8
Идентификатор кодека/Информация : UTF-8 Plain Text
Язык : English
Default : Нет
Forced : Нет

Меню
00:00:00.000 : en:00:00:00.000
00:03:45.851 : en:00:03:45.851
00:08:14.285 : en:00:08:14.285
00:11:29.647 : en:00:11:29.647
00:16:04.422 : en:00:16:04.422
00:19:49.313 : en:00:19:49.313
00:23:49.386 : en:00:23:49.386
00:24:51.115 : en:00:24:51.115
00:27:00.244 : en:00:27:00.244
00:30:28.744 : en:00:30:28.744
00:37:11.938 : en:00:37:11.938
00:44:10.106 : en:00:44:10.106
00:52:47.790 : en:00:52:47.790
00:57:11.345 : en:00:57:11.345
01:02:17.400 : en:01:02:17.400
01:08:43.828 : en:01:08:43.828
01:10:49.954 : en:01:10:49.954
01:13:52.928 : en:01:13:52.928
01:16:17.072 : en:01:16:17.072
01:23:58.200 : en:01:23:58.200
01:26:23.136 : en:01:26:23.136
01:29:59.686 : en:01:29:59.686
01:34:14.315 : en:01:34:14.315
01:40:56.717 : en:01:40:56.717
[url=http://youpicture.org/?v=2014-03-06_eahnxdeifk5tygy СПАМ
pb.wtf



Скачать Роман с камнем + Жемчужина Нила через торрент http://i60.fastpic.ru/big/2014/0108/b0/2db22c2c05169c6f42f2a0d729120bb0.png Скачать фильм Роман с камнем + Жемчужина Нила через торрент бесплантно в хорошем качестве Описание: Джоан Уайлдер, автор популярных женских романов, находит в своем почтовом ящике пакет, присланный из Колумбии ее сестрой. ... 10 10 11
Info! Золотая раздача, скачанное не засчитывается.
Торрент: Зарегистрирован [2014-03-06 08:33] · скачан: 28 раз
Статус: √ проверено
Размер: 60.43 GB
Как cкачать? Как скачать Роман с камнем + Жемчужина Нила через торрент | qTorrent


>> Регистрируемся здесь <<






Отзывы и комментарии о схеме читаем и пишем здесь: ---> Отзывы и комментарии о схеме

Новые благодарочки в телеграм довольных пользователей:
скриншот   скриншот   скриншот   скриншот   скриншот

27-06-2014 22:53 Роман с камнем + Жемчужина Нила Скачать торрент  

поддайте скорости плизpb.wtf



10-04-2018 16:44 Роман с камнем + Жемчужина Нила Скачать торрент  

фильмы на все времена...pb.wtf



    Дорогой пользователь! Огромная просьба, поблагодарите релизера, оцените раздачу и оставьте свои комментарий, если Вы скачали Роман с камнем + Жемчужина Нила через торрент бесплатно! Внесите свою лепту в развитие PiratBit!
    Комментировать посты могут только пользователи прошедшие не сложную регистрацию
    Показать сообщения:    

    Роман с камнем + Жемчужина Нила через торрент
    Скачать бесплатно Роман с камнем + Жемчужина Нила
    Роман с камнем + Жемчужина Нила скачать торрент
    Роман с камнем + Жемчужина Нила смотреть онлайн
    Cкачать фильм Роман с камнем + Жемчужина Нила бесплатно
    Роман с камнем + Жемчужина Нила скачать торрент в хорошем качестве
    Роман с камнем + Жемчужина Нила смотреть онлайн бесплатно в хорошем качестве


    Вы не можете начинать темы
    Вы не можете отвечать на сообщения
    Вы не можете редактировать свои сообщения
    Вы не можете удалять свои сообщения
    Вы не можете голосовать в опросах
    Вы не можете прикреплять файлы к сообщениям
    Вы можете скачивать файлы