Ссылка на приватное зеркало нашего сайта всего за 1$. Внимание количество ограничено!!!

2 сезон

iTunes

1 сезон

1

iTunes

iTunes

iTunes

1 сезон

RePack

30

ИГРА 18+

pack

ВАЖНО

!!Акция!!

Alien_RageХит недели

RePack

MK11
pack

Забери бонус

RePack

jed

!!Акция!!

Alien_Rage

RePack

fifa19

RePack

Assassins Creed: Odyssey

RePack

NEED FOR SPEED™ PAYBACK

4 сезон

9 сезон

Бесстыжие 9 сезон

Все сериалы

все сериалы на PB.wtf

RePack

FAR CRY 5
  

Море даёт, море забирает / Fjällbackamorden: Havet ger, havet tar (Маркус Олссон / Marcus Olsson) [ 2013 , Швеция , криминал , DVDRip ]VO(datynet)+Оригинал pb.wtf

Море даёт, море забирает через торрент pb.wtf

Размер: 1.46 GB | Добавлен: 6 лет 7 мес. назад | Торрент скачан:36 раз
Скачать  

06-03-2014 09:59 Море даёт, море забирает Скачать торрент  

Море даёт, море забирает / Fjällbackamorden: Havet ger, havet tar
Год выпуска: 2013
Страна: Швеция
Жанр: криминал
Продолжительность: 01:28:15
Перевод: Любительский (одноголосый)datynet
Субтитры: Нет

Режиссер: Маркус Олссон / Marcus Olsson
Сценарий: Камилла Лекберг / Camilla Läckberg, Майкл Хьерт / Michael Hjorth, Karin Gidfors, Charlotte Lesche
Продюсер: Хелен Ахлссон / Helen Ahlsson, Понтус Сьёман / Pontus Sjöman, Каиса Вестлинг / Caisa Westling, Sigrid Strohman, Кристиан Сундквист / Christian Sundkvist
Композитор: Йохан Нильссон / Johan Nilsson

В ролях: Клаудия Галли (Erica Falck), Ричард Ульфзэтер (Patrick Hedström), Эва Фритйофсон (Kristina), Памела Кортес Бруна (Paula), Леннарт Якель (Mellberg), Ann Westin (Annika), Simon Brodén (Anton), Lukas Brodén (Noel), Ellen Stenman Göransson (Maja), Джимми Линдстрём (Magnus), Оса-Лена Хельм (Clara), Орьен Ландстрем (Tord)

Мировая премьера: 22 сентября 2013

Описание: Однажды писатель Эрика Фальк, живущая в шведском городке Фьелльбакке, обнаруживает труп пожилого фотографа Стигге Эрикссона. Он был другом Эрики, и она начинает поиски того, кто совершил жестокое преступление. Полиция, в которой работает ее муж Патрик, всегда на шаг позади собственного расследования Эрики.

Рейтинг
imdb.com: 5.30 (187)

Качество: DVDRip
Формат: AVI
Видео кодек: XviD
Аудио кодек: AC3/MP3
Видео: 1910 Кбит/сек, 720*400 (16:9), в 25,000 кадров/сек, MPEG-4 Visual (XviD)
Аудио №1: Русский, 192 Кбит/сек, 44,1 КГц, 2 канала, MPEG Audio (MP3 )
Аудио №2: Шведский, 256 Кбит/сек, 48,0 КГц, 16 бит, 6 каналов, AC-3

Общее
Кол-во : 279
Кол-во потоков такого типа : 1
Тип потока : General
Тип потока : Общее
Идентификатор типа потока : 0
Inform : AVI: 1,46 Гбайт, 1 ч. 28 м.
Кол-во видеопотоков : 1
Кол-во аудиопотоков : 2
Video_Format_List : MPEG-4 Visual
Video_Format_WithHint_List : MPEG-4 Visual (XviD)
Видеокодеки : XviD
Audio_Format_List : MPEG Audio / AC-3
Audio_Format_WithHint_List : MPEG Audio (MP3 ) / AC-3
Аудиокодеки : MPEG-1 Audio layer 3 / AC3
Полное имя : D:ФильмыМоре даёт.avi
Имя папки : D:Фильмы
Имя файла : Море даёт
Расширение : avi
Формат : AVI
Формат : AVI
Формат/Информация : Audio Video Interleave
Формат/Используется в : avi
Коммерческое название : AVI
Интернет-тип носителя : video/vnd.avi
Чередующаяся : Yes
Кодек : AVI
Кодек : AVI
Кодек/Информация : Audio Video Interleave
Кодек/Используется в : avi
Размер файла : 1570234368
Размер файла : 1,46 Гбайт
Размер файла : 1 Гбайт
Размер файла : 1,5 Гбайт
Размер файла : 1,46 Гбайт
Размер файла : 1,462 Гбайт
Продолжительность : 5295080
Продолжительность : 1 ч. 28 м.
Продолжительность : 1 ч. 28 м. 15 с. 80 мс.
Продолжительность : 1 ч. 28 м.
Продолжительность : 01:28:15.080
Общий поток : 2372367
Общий поток : 2372 Кбит/сек
Размер потока : 9611003
Размер потока : 9,17 Мбайт (1%)
Размер потока : 9 Мбайт
Размер потока : 9,2 Мбайт
Размер потока : 9,17 Мбайт
Размер потока : 9,166 Мбайт
Размер потока : 9,17 Мбайт (1%)
Пропорции потока : 0.00612
Дата файла : UTC 2014-03-06 08:43:20.800
Дата файла (местная) : 2014-03-06 15:43:20.800
Дата изменения файла : UTC 2014-03-06 09:40:33.703
Дата изменения файла (местная) : 2014-03-06 16:40:33.703
Программа кодирования : VirtualDubMod 1.5.10.3 | www.virtualdub-fr.org || (build 2550/release)
Библиотека кодирования : VirtualDubMod build 2550/release
Библиотека кодирования : VirtualDubMod build 2550/release

Видео
Кол-во : 248
Кол-во потоков такого типа : 1
Тип потока : Video
Тип потока : Видео
Идентификатор типа потока : 0
Inform : 1910 Кбит/сек, 720*400 (16:9), в 25,000 кадров/сек, MPEG-4 Visual (XviD) (Advanced Simple@L5) (BVOP2 / Custom Matrix)
Идентификатор : 0
Идентификатор : 0
Формат : MPEG-4 Visual
Коммерческое название : MPEG-4 Visual
Профиль формата : Advanced Simple@L5
Настройки формата : BVOP2 / Custom Matrix
Параметр BVOP формата : 2
Параметр BVOP формата : 2
Параметр QPel формата : No
Параметр QPel формата : Нет
Параметр GMC формата : 0
Параметр GMC формата : Без точки перехода
Параметр матрицы формата : Custom
Параметр матрицы формата : Выборочная
Format_Settings_Matrix_Data : 080A0A0A0A0A0A0A0A0A0B0A0B0A0B0B0B0B0B0B0B0D0C0D0D0D0C0D0F0E0E0F0F0E0E0F10101113111010121316161312171A1C1A171D22221D292C29373748 / 0F0F0F0F0F0F0F0F0F0F100F100F101110111110111312131313121316141416161414161717191C1917171B1D20201D1B21262926212B32322B3C423C51516A
Интернет-тип носителя : video/MP4V-ES
Идентификатор кодека : XVID
Идентификатор кодека/Подсказка : XviD
Идентификатор кодека/Ссылка : http://mediaarea.net/XVID
Кодек : XVID
Кодек : XviD
Кодек/Семейство : MPEG-4V
Кодек/Информация : XviD project
Кодек/Ссылка : http://www.xvid.org/Downloads.15.0.html
Кодек/CC : XVID
Профиль кодека : Advanced Simple@L5
Настройки кодека : BVOP / Custom Matrix
Параметр пакетного потока данных кодека : No
Параметр BVOP кодека : Yes
Параметр QPel кодека : No
Параметр GMC кодека : 0
Параметр GMC кодека : Без точки перехода
Параметр матрицы кодека : Custom
Продолжительность : 5295080
Продолжительность : 1 ч. 28 м.
Продолжительность : 1 ч. 28 м. 15 с. 80 мс.
Продолжительность : 1 ч. 28 м.
Продолжительность : 01:28:15.080
Битрейт : 1909847
Битрейт : 1910 Кбит/сек
Ширина : 720
Ширина : 720 пикселей
Высота : 400
Высота : 400 пикселей
Пропорции пикселя : 1.000
Соотношение сторон : 1.800
Соотношение сторон : 16:9
Частота кадров : 25.000
Частота кадров : 25,000 кадров/сек
Счётчик кадров : 132377
Разрешение : 8
Разрешение : 8 бит
Колориметрия : 4:2:0
Цветовое пространство : YUV
Субдискретизация насыщенности : 4:2:0
Битовая глубина : 8
Битовая глубина : 8 бит
Тип развёртки : Progressive
Тип развёртки : Прогрессивная
Переплетение : PPF
Переплетение : Прогрессивная
Метод сжатия : Lossy
Метод сжатия : С потерями
Бит/(Пиксели*Кадры) : 0.265
Задержка : 0
Задержка : 00:00:00.000
Размер потока : 1264099141
Размер потока : 1,18 Гбайт (81%)
Размер потока : 1 Гбайт
Размер потока : 1,2 Гбайт
Размер потока : 1,18 Гбайт
Размер потока : 1,177 Гбайт
Размер потока : 1,18 Гбайт (81%)
Пропорции потока : 0.80504
Библиотека кодирования : XviD0050
Библиотека кодирования : XviD 1.2.1 (UTC 2008-12-04)
Библиотека кодирования/Имя : XviD
Библиотека кодирования/Version : 1.2.1
Библиотека кодирования/Дата : UTC 2008-12-04

Аудио #1
Кол-во : 217
Кол-во потоков такого типа : 2
Тип потока : Audio
Тип потока : Аудио
Идентификатор типа потока : 0
Позиция идентификатора типа потока : 1
Inform : 192 Кбит/сек, 44,1 КГц, 2 канала, MPEG Audio (MP3 ) (Version 1) (Layer 3)
Идентификатор : 1
Идентификатор : 1
Формат : MPEG Audio
Коммерческое название : MPEG Audio
Версия формата : Version 1
Профиль формата : Layer 3
Интернет-тип носителя : audio/mpeg
Идентификатор кодека : 55
Идентификатор кодека/Подсказка : MP3
Идентификатор кодека/Ссылка : http://www.iis.fraunhofer.de/amm/index.html
Кодек : MPA1L3
Кодек : MPEG-1 Audio layer 3
Кодек/Семейство : MPEG-1
Кодек/Информация : MPEG-1 or 2 layer 3
Кодек/Ссылка : http://www.iis.fraunhofer.de/amm/index.html
Кодек/CC : 55
Продолжительность : 5295080
Продолжительность : 1 ч. 28 м.
Продолжительность : 1 ч. 28 м. 15 с. 80 мс.
Продолжительность : 1 ч. 28 м.
Продолжительность : 01:28:15.080
Вид битрейта : CBR
Вид битрейта : Постоянный
Битрейт : 192000
Битрейт : 192 Кбит/сек
Каналы : 2
Каналы : 2 канала
Частота : 44100
Частота : 44,1 КГц
Количество образцов : 233513028
Метод сжатия : Lossy
Метод сжатия : С потерями
Задержка : 0
Задержка : 00:00:00.000
Задержка в оригинале : Stream
Задержка в оригинале : 'Сырой' поток
Задержка видео : 0
Задержка видео : 0
Размер потока : 127081920
Размер потока : 121 Мбайт (8%)
Размер потока : 121 Мбайт
Размер потока : 121 Мбайт
Размер потока : 121 Мбайт
Размер потока : 121,2 Мбайт
Размер потока : 121 Мбайт (8%)
Пропорции потока : 0.08093
Выравнивание : Split
Выравнивание : Разделение по промежуткам
Продолжительность промежутка : 1.00
Продолжительность промежутка : 40
Продолжительность промежутка : 40 мс. (1,00 видеокадр)
Время предзагрузки промежутка : 500
Время предзагрузки промежутка : 500 мс.

Аудио #2
Кол-во : 227
Кол-во потоков такого типа : 2
Тип потока : Audio
Тип потока : Аудио
Идентификатор типа потока : 1
Позиция идентификатора типа потока : 2
Inform : 256 Кбит/сек, 48,0 КГц, 16 бит, 6 каналов, AC-3
Идентификатор : 2
Идентификатор : 2
Формат : AC-3
Формат/Информация : Audio Coding 3
Коммерческое название : AC-3
Расширение режима : CM (complete main)
Параметр Endianness формата : Big
Идентификатор кодека : 2000
Кодек : AC3
Кодек : AC3
Кодек/Семейство : AC3
Кодек/Информация : Dolby AC3
Кодек/CC : 2000
Продолжительность : 5295072
Продолжительность : 1 ч. 28 м.
Продолжительность : 1 ч. 28 м. 15 с. 72 мс.
Продолжительность : 1 ч. 28 м.
Продолжительность : 01:28:15.072
Вид битрейта : CBR
Вид битрейта : Постоянный
Битрейт : 256000
Битрейт : 256 Кбит/сек
Каналы : 6
Каналы : 6 каналов
Расположение каналов : Front: L C R, Side: L R, LFE
Расположение каналов : 3/2/0.1
Частота : 48000
Частота : 48,0 КГц
Количество образцов : 254163456
Разрешение : 16
Разрешение : 16 бит
Битовая глубина : 16
Битовая глубина : 16 бит
Метод сжатия : Lossy
Метод сжатия : С потерями
Задержка : 0
Задержка : 00:00:00.000
Задержка в оригинале : Stream
Задержка в оригинале : 'Сырой' поток
Задержка видео : 0
Задержка видео : 0
Размер потока : 169442304
Размер потока : 162 Мбайт (11%)
Размер потока : 162 Мбайт
Размер потока : 162 Мбайт
Размер потока : 162 Мбайт
Размер потока : 161,6 Мбайт
Размер потока : 162 Мбайт (11%)
Пропорции потока : 0.10791
Выравнивание : Split
Выравнивание : Разделение по промежуткам
Продолжительность промежутка : 1.00
Продолжительность промежутка : 40
Продолжительность промежутка : 40 мс. (1,00 видеокадр)
Время предзагрузки промежутка : 500
Время предзагрузки промежутка : 500 мс.
dialnorm : -31
dialnorm/String : -31 dB
bsid : 8
dialnorm_Average : -31
dialnorm_Average/String : -31 dB
dialnorm_Minimum : -31
dialnorm_Minimum/String : -31 dB
dialnorm_Maximum : -31
dialnorm_Maximum/String : -31 dB
dialnorm_Count : 389





pb.wtf



Скачать Море даёт, море забирает через торрент http://pic.kartinco.top/images/6/l3fz8.jpg Скачать фильм Море даёт, море забирает через торрент бесплантно в хорошем качестве Описание: Однажды писатель Эрика Фальк, живущая в шведском городке Фьелльбакке, обнаруживает труп пожилого фотографа Стигге Эрикссона. Он ... 9.7 10 3
Торрент: Зарегистрирован [2014-03-06 09:59] · скачан: 36 раз
Статус: T временная
Размер: 1.46 GB
Как cкачать? Как скачать Море даёт, море забирает через торрент | qTorrent

28-11-2019 20:33  

Отключить всю рекламу на сайте

    Дорогой пользователь! Огромная просьба, поблагодарите релизера, оцените раздачу и оставьте свои комментарий, если Вы скачали Море даёт, море забирает через торрент бесплатно! Внесите свою лепту в развитие PiratBit!
    Комментировать посты могут только пользователи прошедшие не сложную регистрацию
    Показать сообщения:    

    Море даёт, море забирает через торрент
    Скачать бесплатно Море даёт, море забирает
    Море даёт, море забирает скачать торрент
    Море даёт, море забирает смотреть онлайн
    Cкачать фильм Море даёт, море забирает бесплатно
    Море даёт, море забирает скачать торрент в хорошем качестве
    Море даёт, море забирает смотреть онлайн бесплатно в хорошем качестве


    Вы не можете начинать темы
    Вы не можете отвечать на сообщения
    Вы не можете редактировать свои сообщения
    Вы не можете удалять свои сообщения
    Вы не можете голосовать в опросах
    Вы не можете прикреплять файлы к сообщениям
    Вы можете скачивать файлы