MEGA SALE -50% FORZA HORIZON 4 ULTIMATE+ВСЕ DLC+ОНЛАЙН всего за 599р. 299 руб. (супер цена). Внимание количество ограничено!!!

iTunes

1+1

iTunes

мы

iTunes

1

iTunes

Чернобыль

iTunes

Ральф против интернета

Лицензия

ПШазам

Лицензия

Игра престолов

Лицензия

30
pack

ВАЖНО

!!Акция!!

Alien_RageХит недели

RePack

Resident Evil 21

ИГРА 18+

pack

RePack

Metro:Exodus

!!Акция!!

Alien_Rage

RePack

fifa19

RePack

Assassins Creed: Odyssey

RePack

NEED FOR SPEED™ PAYBACK

3 сезон

9 сезон

Бесстыжие 9 сезон

Все сериалы

все сериалы на PB.wtf

RePack

FAR CRY 5
Ребята, катастрофически не хватает 7730р. для оплаты серверов за АВГУСТ (всвязи с блокировками трафик упал в 3 раза), 1-2р., выручайте.
  

Киллер 2 / Kiler-ow 2-och / Kilerów 2-óch (Юлиуш Махульский / Juliusz Machulski) [1998, Польша, комедия, криминал, DVDRip-AVC] MVO + Original pb.wtf

Киллер 2 через торрент pb.wtf

Раздают: 1 [ 0 KB/s ]
Размер: 2.18 GB | Добавлен: 5 лет 6 мес. назад | Торрент скачан:22 раза
Скачать  

06-03-2014 18:25 Киллер 2 Скачать торрент  

Киллер 2
Kiler-ow 2-och / Kilerów 2-óch




Страна: Польша
Жанр: комедия, криминал
Год выпуска: 1998
Продолжительность: 01:53:55

Перевод: Профессиональный (многоголосый, закадровый)
Cубтитры: Английские
Оригинальная аудиодорожка: Польский

Режиссер:
Юлиуш Махульский / Juliusz Machulski

В ролях:
Цезары Пазура, Малгожата Козуховска, Януш Ревинский, Ян Энглерт, Ежи Штур, Катажина Фигура, Йоланта Фрашиньска, Кшиштоф Кершновский, Здислав Амброзиак, Анджей Бей-Заборский

Описание:
После того, как Юрек Киллер стал национальным героем, к нему со всех сторон сталипоступать самые заманчивые предложения. Теперь он уже не простой таксист, а глава крупного благотворительного фонда, куда стекаются весьма щедрые пожертвования. И одним из таких пожертвований являются три тонны золота в слитках. Мафия, естественно, не может упустить такие сокровища и для получения груза находит двойника, внешне обладающего полным сходством с Юреком. Но остается одно препятствие — сам Юрек Килер…


Релиз:

Автор рипа: Stalker oK

Сэмпл: multi-up

Качество видео: DVDRip-AVC [Kiler 2 DVD5]
Формат видео: MKV
Видео кодек: AVC
Аудио кодек: AC3
Видео: 2162 Кбит/сек, 692(757)*458 (1,653), в 25,000 кадр/сек, AVC
Аудио #1: Russian, 128 Кбит/сек, 48,0 КГц, 16 бит, 2 канала(ов), AC-3
Аудио #2: Polish, 448 Кбит/сек, 48,0 КГц, 16 бит, 5 канала(ов), AC-3
Общее
Уникальный идентификатор : 181246905024724362599797973189796041844 (0x885AE2590F9BED879517C95633501474)
Полное имя : H:!Киллер 1, 2Киллер 2Kiler_2_1998_DVDRip_AVC_MVO_2.18__stalkerok_new-team.mkv
Формат : Matroska
Размер файла : 2,18 Гбайт
Продолжительность : 1 ч. 53 м.
Общий поток : 2741 Кбит/сек
Название фильма : Kilerów 2-óch (1998) (New-Team) (Rip by Stalker oK)
Дата кодирования : UTC 2014-03-06 17:09:55
Программа кодирования : mkvmerge v6.2.0 ('Promised Land') built on Apr 28 2013 12:22:01
Библиотека кодирования : libebml v1.3.0 + libmatroska v1.4.0

Видео
Идентификатор : 1
Формат : AVC
Формат/Информация : Advanced Video Codec
Профиль формата : High@L4.1
Параметр CABAC формата : Да
Параметр ReFrames формата : 10 кадры
Параметры GOP формата : M=4, N=6
Идентификатор кодека : V_MPEG4/ISO/AVC
Продолжительность : 1 ч. 53 м.
Битрейт : 2162 Кбит/сек
Ширина : 692 пикс.
Высота : 458 пикс.
Соотношение сторон : 1,653
Частота кадров : 25,000 кадр/сек
Цветовое пространство : YUV
Подвыборка цветности : 4:2:0
Битовая глубина : 8 бит
Тип развёртки : Прогрессивная
Бит/(Пиксели*Кадры) : 0.273
Размер потока : 1,68 Гбайт (77%)
Библиотека кодирования : x264 core 138 r2358 9e941d1
Настройки программы : cabac=1 / ref=10 / deblock=1:-2:-1 / analyse=0x3:0x133 / me=umh / subme=11 / psy=1 / psy_rd=1.00:0.15 / mixed_ref=1 / me_range=32 / chroma_me=1 / trellis=2 / 8x8dct=1 / cqm=0 / deadzone=21,11 / fast_pskip=0 / chroma_qp_offset=-3 / threads=6 / lookahead_threads=1 / sliced_threads=0 / nr=0 / decimate=0 / interlaced=0 / bluray_compat=0 / constrained_intra=0 / bframes=10 / b_pyramid=2 / b_adapt=2 / b_bias=0 / direct=3 / weightb=1 / open_gop=0 / weightp=2 / keyint=250 / keyint_min=25 / scenecut=40 / intra_refresh=0 / rc_lookahead=80 / rc=2pass / mbtree=1 / bitrate=2162 / ratetol=1.0 / qcomp=0.65 / qpmin=0 / qpmax=69 / qpstep=4 / cplxblur=20.0 / qblur=0.5 / vbv_maxrate=20000 / vbv_bufsize=25000 / nal_hrd=none / ip_ratio=1.40 / aq=1:1.00

Аудио #1
Идентификатор : 2
Формат : AC-3
Формат/Информация : Audio Coding 3
Расширение режима : CM (complete main)
Идентификатор кодека : A_AC3
Продолжительность : 1 ч. 53 м.
Вид битрейта : Постоянный
Битрейт : 128 Кбит/сек
Канал(ы) : 2 канала(ов)
Расположение каналов : Front: L R
Частота : 48,0 КГц
Битовая глубина : 16 бит
Метод сжатия : С потерями
Размер потока : 104 Мбайт (5%)
Заголовок : AC3 2.0 @ 128 kbps
Язык : Russian

Аудио #2
Идентификатор : 3
Формат : AC-3
Формат/Информация : Audio Coding 3
Расширение режима : CM (complete main)
Идентификатор кодека : A_AC3
Продолжительность : 1 ч. 53 м.
Вид битрейта : Постоянный
Битрейт : 448 Кбит/сек
Канал(ы) : 5 канала(ов)
Расположение каналов : Front: L C R, Side: L R
Частота : 48,0 КГц
Битовая глубина : 16 бит
Метод сжатия : С потерями
Размер потока : 365 Мбайт (16%)
Заголовок : AC3 5.0 @ 448 kbps
Язык : Polish

Текст
Идентификатор : 4
Формат : UTF-8
Идентификатор кодека : S_TEXT/UTF8
Идентификатор кодека/Информация : UTF-8 Plain Text
Заголовок : english
Язык : English
pb.wtf



Скачать Киллер 2 через торрент http://i4.imageban.ru/out/2013/11/20/23afd37ba301cf29b16658cd2201c4ed.png Скачать фильм Киллер 2 через торрент бесплантно в хорошем качестве Описание:После того, как Юрек Киллер стал национальным героем, к нему со всех сторон сталипоступать самые заманчивые предложения. Теперь он ... 10 10 4
Info! Золотая раздача, скачанное не засчитывается.
Торрент: Зарегистрирован [2014-03-06 18:25] · скачан: 22 раз
Статус: √ проверено
Размер: 2.18 GB
Как cкачать? Как скачать Киллер 2 через торрент | qTorrent

% Раздел Тема Автор DL S | L
Фильмы до 2000 г. [ 1.45 GB ] Киллер 2 / Kiler-ow 2-och / Kilerów 2-óch [1998 Польша DVDRip-AVC] MVO + Original sokol_ok Скачать
2 | 0


>> Регистрируемся здесь <<






Отзывы и комментарии о схеме читаем и пишем здесь: ---> Отзывы и комментарии о схеме

Новые благодарочки в телеграм довольных пользователей:
скриншот   скриншот   скриншот   скриншот   скриншот
    Дорогой пользователь! Огромная просьба, поблагодарите релизера, оцените раздачу и оставьте свои комментарий, если Вы скачали Киллер 2 через торрент бесплатно! Внесите свою лепту в развитие PiratBit!
    Комментировать посты могут только пользователи прошедшие не сложную регистрацию
    Показать сообщения:    

    Киллер 2 через торрент
    Скачать бесплатно Киллер 2
    Киллер 2 скачать торрент
    Киллер 2 смотреть онлайн
    Cкачать фильм Киллер 2 бесплатно
    Киллер 2 скачать торрент в хорошем качестве
    Киллер 2 смотреть онлайн бесплатно в хорошем качестве


    Вы не можете начинать темы
    Вы не можете отвечать на сообщения
    Вы не можете редактировать свои сообщения
    Вы не можете удалять свои сообщения
    Вы не можете голосовать в опросах
    Вы не можете прикреплять файлы к сообщениям
    Вы можете скачивать файлы