2 сезон

iTunes

1 сезон

1

iTunes

iTunes

iTunes

1 сезон

RePack

30

ИГРА 18+

pack

ВАЖНО

!!Акция!!

Alien_RageХит недели

RePack

MK11
pack

Забери бонус

RePack

jed

!!Акция!!

Alien_Rage

RePack

fifa19

RePack

Assassins Creed: Odyssey

RePack

NEED FOR SPEED™ PAYBACK

4 сезон

9 сезон

Бесстыжие 9 сезон

Все сериалы

все сериалы на PB.wtf

RePack

FAR CRY 5
  

Разрешите тебя поцеловать… на свадьбе (Мария Сергеенкова) [2013, Россия, комедия, DVDRip] pb.wtf

Разрешите тебя поцеловать… на свадьбе через торрент pb.wtf

Размер: 1.37 GB | Добавлен: 6 лет 7 мес. назад | Торрент скачан:681 раз
Скачать  

07-03-2014 09:26 Разрешите тебя поцеловать… на свадьбе Скачать торрент  


Разрешите тебя поцеловать… на свадьбе

«Evil wears many faces»

  • Год выпуска:2013
  • Страна:Россия
  • Жанр: комедия
  • Продолжительность: 01:28:05
  • Перевод: Не требуется

  • Субтитры: Нет
  • Режиссер:Мария Сергеенкова
  • В ролях: Игорь Лифанов (Григорий Николаевич Власов), Мария Куликова (Наталья Киселева), Борис Щербаков, Андрей Струговец (солдат), Серафима Низовская (полковник Иваненко), Михаил Трясоруков (капитан Маленьких), Сергей Лосев (отец Наташи), Ольга Кирсанова (мать Наташи)
    • Описание:
      Прошел год после событий фильма «Разрешите тебя поцеловать...снова», в котором Власов с честью вышел из истории с «генеральской внучкой». Теперь он восстановлен в звании полковника. Генерал же готовится к «повышению» и благополучному выходу на пенсию. Только вот единственная часть портит ему все показатели и ставит под угрозу «заслуженный отдых». Есть только один человек, способный в кратчайшие сроки навести в подразделении порядок. Григория Власова и Наташу переводят в Санкт-Петербург!
      Власов говорит о том, что теперь на новом месте службы и в новой квартире можно и про свадьбу подумать. «Разрешите пригласить тебя в ЗАГС», - заявляет он. Но сначала нужно навести в части порядок. Вверенное ему подразделение находится просто в плачевном состоянии. Проверка может нагрянуть буквально в любой момент, а без успешных оценок «плакала» и новая квартира, и жизнь в «северной столице» и пенсия у генерала. Словом, пройти проверку нужно только «на пять»! Наш герой вынужден разрываться между наведением порядка в полку и подготовкой к свадьбе, ведь на все это у него есть только неделя! Ситуация усложняется когда в полку появляется проверяющий, полковник Светлана Иваненко - бывшая жена Григория Власова. Тут уж Григорию точно никакого «спуску» не будет! Свадьба под угрозой срыва, между Наташей и Власовым летают «гром и молнии»... «Отменяй, Власов, свадьбу!» - заявляет Иваненко. Не тут-то было! Наш герой преодолеет все преграды, снова докажет свою любовь, с честью решит все проблемы и, наконец, сможет поцеловать свою невесту... на свадьбе!

    • Качество:DVDRip
    • Формат:AVI
    • Видео кодек: XviD
    • Аудио кодек:AC3
    • Видео: 720x400 (16:9), 1955 kbps, 25 fps
    • Аудио: AC3 / 2.0 / 48 kHz / 256 kbps / 16 bit


    Код:

    General
    Complete name                            : D:ТорентыRazreshite.tebya.pocelovatj.na.svadjbe.2013.O.DVDRip.avi
    Format                                   : AVI
    Format/Info                              : Audio Video Interleave
    File size                                : 1.37 GiB
    Duration                                 : 1h 28mn
    Overall bit rate                         : 2 222 Kbps
    Writing application                      : VirtualDubMod 1.5.10.3 | www.virtualdub-fr.org || (build 2550/release)
    Writing library                          : VirtualDubMod build 2550/release

    Video
    ID                                       : 0
    Format                                   : MPEG-4 Visual
    Format profile                           : Advanced Simple@L5
    Format settings, BVOP                    : 2
    Format settings, QPel                    : No
    Format settings, GMC                     : No warppoints
    Format settings, Matrix                  : Default (MPEG)
    Codec ID                                 : XVID
    Codec ID/Hint                            : XviD
    Duration                                 : 1h 28mn
    Bit rate                                 : 1 956 Kbps
    Width                                    : 720 pixels
    Height                                   : 400 pixels
    Display aspect ratio                     : 16:9
    Frame rate                               : 25.000 fps
    Color space                              : YUV
    Chroma subsampling                       : 4:2:0
    Bit depth                                : 8 bits
    Scan type                                : Progressive
    Compression mode                         : Lossy
    Bits/(Pixel*Frame)                       : 0.272
    Stream size                              : 1.20 GiB (88%)
    Writing library                          : XviD 1.2.1 (UTC 2008-12-04)

    Audio
    ID                                       : 1
    Format                                   : AC-3
    Format/Info                              : Audio Coding 3
    Mode extension                           : CM (complete main)
    Codec ID                                 : 2000
    Duration                                 : 1h 28mn
    Bit rate mode                            : Constant
    Bit rate                                 : 256 Kbps
    Channel(s)                               : 2 channels
    Channel positions                        : Front: L R
    Sampling rate                            : 48.0 KHz
    Bit depth                                : 16 bits
    Compression mode                         : Lossy
    Stream size                              : 161 MiB (12%)
    Alignment                                : Split accross interleaves
    Interleave, duration                     : 40 ms (1.00 video frame)
    Interleave, preload duration             : 500 ms

    Скриншоты:

    Трейлеры к фильмам [2014]
    © Оформление by Raven pb.wtf



  • Скачать Разрешите тебя поцеловать… на свадьбе через торрент http://pic.kartinco.top/images/6/ordi9.jpg Скачать фильм Разрешите тебя поцеловать… на свадьбе через торрент бесплантно в хорошем качестве Описание:Прошел год после событий фильма «Разрешите тебя поцеловать...снова», в котором Власов с честью вышел из истории с «генеральской ... 9.9 10 17
    Торрент: Зарегистрирован [2014-03-07 09:26] · скачан: 681 раз
    Статус: √ проверено
    Размер: 1.37 GB
    Как cкачать? Как скачать Разрешите тебя поцеловать… на свадьбе через торрент | qTorrent

    % Раздел Тема Автор DL S | L
    Наши фильмы (DVD фильмы) [ 4.04 GB ] Разрешите тебя поцеловать... на свадьбе [2013 DVD5] R5 voovaz Скачать
    1 | 0

    28-11-2019 20:33  

    Отключить всю рекламу на сайте

      Дорогой пользователь! Огромная просьба, поблагодарите релизера, оцените раздачу и оставьте свои комментарий, если Вы скачали Разрешите тебя поцеловать… на свадьбе через торрент бесплатно! Внесите свою лепту в развитие PiratBit!
      Комментировать посты могут только пользователи прошедшие не сложную регистрацию
      Показать сообщения:    

      Разрешите тебя поцеловать… на свадьбе через торрент
      Скачать бесплатно Разрешите тебя поцеловать… на свадьбе
      Разрешите тебя поцеловать… на свадьбе скачать торрент
      Разрешите тебя поцеловать… на свадьбе смотреть онлайн
      Cкачать фильм Разрешите тебя поцеловать… на свадьбе бесплатно
      Разрешите тебя поцеловать… на свадьбе скачать торрент в хорошем качестве
      Разрешите тебя поцеловать… на свадьбе смотреть онлайн бесплатно в хорошем качестве


      Вы не можете начинать темы
      Вы не можете отвечать на сообщения
      Вы не можете редактировать свои сообщения
      Вы не можете удалять свои сообщения
      Вы не можете голосовать в опросах
      Вы не можете прикреплять файлы к сообщениям
      Вы можете скачивать файлы