Ссылка на приватное зеркало всего за 1$. Внимание количество ограничено!!!

iTunes

iTunes

iTunes

1

iTunes

iTunes

iTunes

iTunes

iTunes

30
pack

$ от Little Big

ВАЖНО

!!Акция!!

Alien_RageХит недели

RePack

Resident Evil 21

ИГРА 18+

pack

RePack

jed

!!Акция!!

Alien_Rage

RePack

fifa19

RePack

Assassins Creed: Odyssey

RePack

NEED FOR SPEED™ PAYBACK

4 сезон

9 сезон

Бесстыжие 9 сезон

Все сериалы

все сериалы на PB.wtf

RePack

FAR CRY 5
  

Ранчо Халява / Buck Wild (Тайлер Глодт / Tyler Glodt) [2013, США, ужасы, комедия, WEB-DL 720p,Любительский многоголосый[ViruseProject] pb.wtf

Ранчо Халява через торрент pb.wtf

Размер: 3.21 GB | Добавлен: 6 лет 4 мес. назад | Торрент скачан:44 раза
Скачать  

07-03-2014 17:28 Ранчо Халява Скачать торрент  


Ранчо Халява / Buck Wild

«Evil wears many faces»

  • Год выпуска:2013
  • Страна:США
  • Жанр: ужасы, комедия

  • Продолжительность: 01:35:28
  • Перевод: Любительский многоголосый [ViruseProject]

  • Субтитры: English
  • Режиссер:Тайлер Глодт / Tyler Glodt
  • В ролях: Мэг Чионни (Candy), Джо Стивенс (Clyde), Амелия Мейерс (Carla), Мэттью Альбрехт (Craig), Марк Форд (Billy Ray), Джаррод Пистилли (Jerry), Тайлер Глодт (Officer Shipley), Дрю Локвуд (Tom), Исаак Харрисон (Lance), Joe Canik (Dale), Уолтер Вомак (Old Man), Чэнс Бертон Мерфи (Murph)
    • Описание:
      Крейг Томпсон вытягивает своих друзей: Тома, Лэнса и кузена Джерри на охоту на ранчо "ХАЛЯВА", которое находится у чёрта на куличках. Планируя не только отдохнуть по человечески, но и раскрыть своим друзьям, что он хочет жениться на девушке с которой живет уже 6 лет. В итоге выясняется, что девушка Крейга еще та "гулящая особа", так еще и постоянно изменяла ему с лучшим другом - Лэнсом. И пока у них идет своя комедийная драма, вокруг быстрым ходом распространяется вирус "Чупакабра", который превращает всех жителей ближайшей деревни и соседних ранчо в нежить/зомби. После чего ребятишкам приходится выживать в этой кровавой бане юмора!

    • Качество:WEB-DL 720p
    • Формат:MKV
    • Видео кодек: AVC
    • Аудио кодек:AC3
    • Видео: 1280x536 (2.40:1), 3951 kbps, 23,976 fps
    • Аудио №1: русский / AC3 / 5.1 / 48 kHz / 384 kbps / 16 bit ||
      Аудио №2: английский / AC3 / 5.1 / 48 kHz / 384 kbps / 16 bit


    Код:

    General
    Unique ID                                : 193511880434486997898108686633270745824 (0x91950852BAA734C48C30B35AEFD79AE0)
    Complete name                            : D:ТорентыBuck.Wild.2013.720p.WEB-DL.mkv
    Format                                   : Matroska
    Format version                           : Version 4 / Version 2
    File size                                : 3.21 GiB
    Duration                                 : 1h 35mn
    Overall bit rate                         : 4 815 Kbps
    Encoded date                             : UTC 2014-03-07 15:53:29
    Writing application                      : mkvmerge v6.1.0 ('Old Devil') built on Mar  4 2013 09:10:42
    Writing library                          : libebml v1.3.0 + libmatroska v1.4.0

    Video
    ID                                       : 1
    Format                                   : AVC
    Format/Info                              : Advanced Video Codec
    Format profile                           : Main@L3.1
    Format settings, CABAC                   : No
    Format settings, ReFrames                : 2 frames
    Codec ID                                 : V_MPEG4/ISO/AVC
    Duration                                 : 1h 35mn
    Bit rate                                 : 3 952 Kbps
    Width                                    : 1 280 pixels
    Height                                   : 536 pixels
    Display aspect ratio                     : 2.40:1
    Frame rate                               : 23.976 fps
    Color space                              : YUV
    Chroma subsampling                       : 4:2:0
    Bit depth                                : 8 bits
    Scan type                                : Progressive
    Bits/(Pixel*Frame)                       : 0.240
    Stream size                              : 2.64 GiB (82%)
    Language                                 : English
    Default                                  : Yes
    Forced                                   : No
    Color primaries                          : BT.709-5, BT.1361, IEC 61966-2-4, SMPTE RP177
    Transfer characteristics                 : BT.709-5, BT.1361
    Matrix coefficients                      : BT.709-5, BT.1361, IEC 61966-2-4 709, SMPTE RP177

    Audio #1
    ID                                       : 2
    Format                                   : AC-3
    Format/Info                              : Audio Coding 3
    Mode extension                           : CM (complete main)
    Codec ID                                 : A_AC3
    Duration                                 : 1h 35mn
    Bit rate mode                            : Constant
    Bit rate                                 : 384 Kbps
    Channel(s)                               : 6 channels
    Channel positions                        : Front: L C R, Side: L R, LFE
    Sampling rate                            : 48.0 KHz
    Bit depth                                : 16 bits
    Compression mode                         : Lossy
    Stream size                              : 262 MiB (8%)
    Language                                 : Russian
    Default                                  : Yes
    Forced                                   : No

    Audio #2
    ID                                       : 3
    Format                                   : AC-3
    Format/Info                              : Audio Coding 3
    Mode extension                           : CM (complete main)
    Codec ID                                 : A_AC3
    Duration                                 : 1h 35mn
    Bit rate mode                            : Constant
    Bit rate                                 : 384 Kbps
    Channel(s)                               : 6 channels
    Channel positions                        : Front: L C R, Side: L R, LFE
    Sampling rate                            : 48.0 KHz
    Bit depth                                : 16 bits
    Compression mode                         : Lossy
    Stream size                              : 262 MiB (8%)
    Language                                 : English
    Default                                  : No
    Forced                                   : No

    Text
    ID                                       : 4
    Format                                   : UTF-8
    Codec ID                                 : S_TEXT/UTF8
    Codec ID/Info                            : UTF-8 Plain Text
    Language                                 : English
    Default                                  : No
    Forced                                   : No

    Menu
    00:00:00.000                             : en:1
    00:03:34.000                             : en:2
    00:10:24.000                             : en:3
    00:16:11.000                             : en:4
    00:22:54.000                             : en:5
    00:28:11.000                             : en:6
    00:32:44.000                             : en:7
    00:41:00.000                             : en:8
    00:46:19.000                             : en:9
    00:51:17.000                             : en:10
    00:56:05.000                             : en:11
    01:03:29.000                             : en:12
    01:11:24.000                             : en:13
    01:16:19.000                             : en:14
    01:20:11.000                             : en:15
    01:27:31.000                             : en:16

    Скриншоты:

    Трейлеры к фильмам [2014]
    © Оформление by Raven pb.wtf



  • Скачать Ранчо Халява через торрент http://pic.kartinco.top/images/6/ordi9.jpg Скачать фильм Ранчо Халява через торрент бесплантно в хорошем качестве Описание:Крейг Томпсон вытягивает своих друзей: Тома, Лэнса и кузена Джерри на охоту на ранчо "ХАЛЯВА", которое находится у чёрта на ... 7.7 10 3
    Торрент: Зарегистрирован [2014-03-07 17:28] · скачан: 44 раз
    Статус: T временная
    Размер: 3.21 GB
    Как cкачать? Как скачать Ранчо Халява через торрент | qTorrent

    % Раздел Тема Автор DL S | L
    T Фильмы 2013 (Звук TS, Cam, VO, DVO) [ 1.46 GB ] Ранчо Халява / Buck Wild [2013 WEB-DLRipЛюбительский многоголосый[ViruseProject] Ворон Скачать
    1 | 0

    28-11-2019 20:33  

    Отключить всю рекламу на сайте

      Дорогой пользователь! Огромная просьба, поблагодарите релизера, оцените раздачу и оставьте свои комментарий, если Вы скачали Ранчо Халява через торрент бесплатно! Внесите свою лепту в развитие PiratBit!
      Комментировать посты могут только пользователи прошедшие не сложную регистрацию
      Показать сообщения:    

      Ранчо Халява через торрент
      Скачать бесплатно Ранчо Халява
      Ранчо Халява скачать торрент
      Ранчо Халява смотреть онлайн
      Cкачать фильм Ранчо Халява бесплатно
      Ранчо Халява скачать торрент в хорошем качестве
      Ранчо Халява смотреть онлайн бесплатно в хорошем качестве


      Вы не можете начинать темы
      Вы не можете отвечать на сообщения
      Вы не можете редактировать свои сообщения
      Вы не можете удалять свои сообщения
      Вы не можете голосовать в опросах
      Вы не можете прикреплять файлы к сообщениям
      Вы можете скачивать файлы