Ссылка на приватное зеркало нашего сайта всего за 1$. Внимание количество ограничено!!!

2 сезон

iTunes

1 сезон

1

2 сезон

2 сезон

iTunes

1 сезон

RePack

30

Ultimate

ВАЖНО

ИГРА 18+

pack

RePack

MK11
pack

Забери бонус

RePack

jed

!!Акция!!

Alien_Rage

RePack

fifa19

RePack

Assassins Creed: Odyssey

RePack

NEED FOR SPEED™ PAYBACK

4 сезон

9 сезон

Бесстыжие 9 сезон

Все сериалы

все сериалы на PB.wtf

RePack

FAR CRY 5
  

Багровая зима / Crimson Winter (Брайан Ферритер ) [2013, США, Ужасы, Триллер, BDRip 1080p,VO [VANO] pb.wtf

Багровая зима через торрент pb.wtf

Размер: 7.79 GB | Добавлен: 6 лет 8 мес. назад | Торрент скачан:63 раза
Скачать  

07-03-2014 21:26 Багровая зима Скачать торрент  

Название: Багровая зима
Оригинальное название: Crimson Winter / Crimson Throne
Год выхода: 2013
Выпущено: США
Продолжительность: 01:46:19
Озвучивание: Любительское (одноголосое) [VANO]
Жанр: ужасы, боевик, драма
Режиссер: Брайан Ферритер
В ролях: Брайан Ферритер, Ник Милодрагович, Кайли Майкл Портсмут, Райн Пфайффер, Брэндон Дэй, Поли Роджа

Описание:
Много веков назад в кровавой резне клан вампиров был практически уничтожен людьми. Исторические упоминания о вампирах также исчезли. Но часть этих существ бежали и осели в горной заснеженной местности Новой Америки. В их числе был и принц-вампир, который долго выжыдал время, чтобы отомстить за прошлое. И вот в наши дни студенты аспирантуры вторглись в чужие владения с целью изучения данной местности. Но они никак не могли ожидать, что столкнуться лицом к лицу со смертью...



Файл
Качество: BDRip 1080p [RUSTED]
Формат: MKV
Видео кодек: AVC
Аудио кодек: AC3/DTS
Видео: 8789 kb/s, 1920x824, 23,976 кадра/сек
Аудио: Russian: AC3, 192 kb/s (2 ch) 48,0 КГц
Аудио: English: DTS, 1510 kb/s (6 ch)48,0 КГц
Дополнительно: Сохранены оригинальные чаптеры как на Blu-Ray

Скачать: Сэмпл

Релиз группы:

Общее
Crimson.Winter.2013.Blu.Ray.1080p.CINEMANIA.mkv
Формат : Matroska
Версия формата : Version 4 / Version 2
Размер файла : 7,79 Гбайт
Продолжительность : 1 ч. 46 м.
Общий поток : 10,5 Мбит/сек
Название фильма : Release Group CINEMANIA
Дата кодирования : UTC 2014-03-07 20:06:17
Программа кодирования : mkvmerge v6.8.0 ('Theme for Great Cities') 64bit built on Mar 2 2014 21:34:26
Библиотека кодирования : libebml v1.3.0 + libmatroska v1.4.1

Видео
Идентификатор : 1
Формат : AVC
Формат/Информация : Advanced Video Codec
Профиль формата : High@L4.1
Параметр CABAC формата : Да
Параметр ReFrames формата : 5 кадров
Идентификатор кодека : V_MPEG4/ISO/AVC
Продолжительность : 1 ч. 46 м.
Битрейт : 8789 Кбит/сек
Ширина : 1920 пикселей
Высота : 824 пикселя
Соотношение сторон : 2,35:1
Режим частоты кадров : Постоянный
Частота кадров : 23,976 кадра/сек
Цветовое пространство : YUV
Субдискретизация насыщенности : 4:2:0
Битовая глубина : 8 бит
Тип развёртки : Прогрессивная
Бит/(Пиксели*Кадры) : 0.232
Размер потока : 6,37 Гбайт (82%)
Заголовок : Release Group CINEMANIA
Библиотека кодирования : x264 core 140 r2377 1ca7bb9
Настройки программы : cabac=1 / ref=5 / deblock=1:0:0 / analyse=0x3:0x133 / me=umh / subme=7 / psy=1 / psy_rd=1.00:0.00 / mixed_ref=1 / me_range=16 / chroma_me=1 / trellis=1 / 8x8dct=1 / cqm=0 / deadzone=21,11 / fast_pskip=0 / chroma_qp_offset=-2 / threads=9 / lookahead_threads=1 / sliced_threads=0 / nr=0 / decimate=1 / interlaced=0 / bluray_compat=0 / constrained_intra=0 / bframes=3 / b_pyramid=2 / b_adapt=1 / b_bias=0 / direct=1 / weightb=1 / open_gop=0 / weightp=1 / keyint=250 / keyint_min=23 / scenecut=40 / intra_refresh=0 / rc_lookahead=40 / rc=2pass / mbtree=1 / bitrate=8789 / ratetol=1.0 / qcomp=0.60 / qpmin=0 / qpmax=69 / qpstep=4 / cplxblur=20.0 / qblur=0.5 / ip_ratio=1.40 / aq=1:1.00
Default : Да
Forced : Нет

Аудио #1
Идентификатор : 2
Формат : AC-3
Формат/Информация : Audio Coding 3
Расширение режима : CM (complete main)
Параметр Endianness формата : Big
Идентификатор кодека : A_AC3
Продолжительность : 1 ч. 46 м.
Вид битрейта : Постоянный
Битрейт : 192 Кбит/сек
Каналы : 2 канала
Расположение каналов : Front: L R
Частота : 48,0 КГц
Битовая глубина : 16 бит
Метод сжатия : С потерями
Размер потока : 146 Мбайт (2%)
Заголовок : VANO
Язык : Russian
Default : Да
Forced : Да

Аудио #2
Идентификатор : 3
Формат : DTS
Формат/Информация : Digital Theater Systems
Режим : 16
Параметр Endianness формата : Big
Идентификатор кодека : A_DTS
Продолжительность : 1 ч. 46 м.
Вид битрейта : Постоянный
Битрейт : 1509 Кбит/сек
Каналы : 6 каналов
Расположение каналов : Front: L C R, Side: L R, LFE
Частота : 48,0 КГц
Битовая глубина : 16 бит
Метод сжатия : С потерями
Размер потока : 1,12 Гбайт (14%)
Язык : English
Default : Нет
Forced : Нет

Меню
00:00:00.000 : en:00:00:00.000
00:07:59.938 : en:00:07:59.938
00:15:59.959 : en:00:15:59.959
00:23:59.938 : en:00:23:59.938
00:31:59.960 : en:00:31:59.960
00:39:59.981 : en:00:39:59.981
00:47:59.919 : en:00:47:59.919
00:55:59.898 : en:00:55:59.898
01:03:59.919 : en:01:03:59.919
01:11:59.941 : en:01:11:59.941
01:19:59.920 : en:01:19:59.920
01:27:59.858 : en:01:27:59.858
pb.wtf



Скачать Багровая зима через торрент http://i4.imageban.ru/out/2014/03/07/03e50774635dceddebd58ba57098e67f.png Скачать фильм Багровая зима через торрент бесплантно в хорошем качестве Описание: Много веков назад в кровавой резне клан вампиров был практически уничтожен людьми. Исторические упоминания о вампирах также ... 9.5 10 4
Торрент: Зарегистрирован [2014-03-07 21:26] · скачан: 63 раз
Статус: √ проверено
Размер: 7.79 GB
Как cкачать? Как скачать Багровая зима через торрент | qTorrent

% Раздел Тема Автор DL S | L
T Фильмы 2013 (Звук TS, Cam, VO, DVO) [ 1.46 GB ] Багровая зима / Crimson Winter [2013 HDRipVO] Ворон Скачать
1 | 0

28-11-2019 20:33  

Отключить всю рекламу на сайте

08-03-2014 00:47 Багровая зима Скачать торрент  

почему нигде нет дубляжа?pb.wtf



02-02-2015 17:28 Багровая зима Скачать торрент  

полная хрень, не сюжета не игры актеровpb.wtf



    Дорогой пользователь! Огромная просьба, поблагодарите релизера, оцените раздачу и оставьте свои комментарий, если Вы скачали Багровая зима через торрент бесплатно! Внесите свою лепту в развитие PiratBit!
    Комментировать посты могут только пользователи прошедшие не сложную регистрацию
    Показать сообщения:    

    Багровая зима через торрент
    Скачать бесплатно Багровая зима
    Багровая зима скачать торрент
    Багровая зима смотреть онлайн
    Cкачать фильм Багровая зима бесплатно
    Багровая зима скачать торрент в хорошем качестве
    Багровая зима смотреть онлайн бесплатно в хорошем качестве


    Вы не можете начинать темы
    Вы не можете отвечать на сообщения
    Вы не можете редактировать свои сообщения
    Вы не можете удалять свои сообщения
    Вы не можете голосовать в опросах
    Вы не можете прикреплять файлы к сообщениям
    Вы можете скачивать файлы