MEGA NEWS Получи личный уникальный адрес сайта и защити себя от блокировок. Внимание количество ограничено!!!

iTunes

1+1

iTunes

мы

iTunes

1

iTunes

Чернобыль

iTunes

Ральф против интернета

Лицензия

ПШазам

Лицензия

Игра престолов

Лицензия

30
pack

ВАЖНО

!!Акция!!

Alien_RageХит недели

RePack

Resident Evil 21

ИГРА 18+

pack

RePack

Metro:Exodus

!!Акция!!

Alien_Rage

RePack

fifa19

RePack

Assassins Creed: Odyssey

RePack

NEED FOR SPEED™ PAYBACK

3 сезон

9 сезон

Бесстыжие 9 сезон

Все сериалы

все сериалы на PB.wtf

RePack

FAR CRY 5
Ребята, катастрофически не хватает 1900р. для оплаты серверов за АВГУСТ (всвязи с блокировками трафик упал в 3 раза), 1-2р., выручайте.
  

Отточенное лезвие / Sling Blade (Билли Боб Торнтон) [1995 г., драма, HDRip-AVC, MVO, SUB] от R.G. PiratFilms pb.wtf

Отточенное лезвие через торрент pb.wtf

Размер: 2.18 GB | Добавлен: 5 лет 7 мес. назад | Торрент скачан:23 раза
Скачать  

08-03-2014 07:07 Отточенное лезвие Скачать торрент  

Отточенное лезвие / Sling Blade
Год выпуска: 1995
Страна: США
Жанр: драма
Продолжительность: 02:14:40
Перевод: Профессиональный многоголосый
Субтитры: Russian(2), Ukrainian, English

Режиссер: Билли Боб Торнтон
Продюссер: Дэвид Л. Бушнелл, Брэндон Россер, Ларри Майстрич
Сценарий: Билли Боб Торнтон
Бюджет: $1 000 000
Премьера в мире: 30 августа 1996

IMDB 8.10 (60 639)


В ролях: Билли Боб Торнтон, Дуайт Йоакам, Дж.Т. Уолш, Джон Риттер, Лукас Блэк, Натали Кэнердей, Джеймс Хэмптон, Роберт Дювалл, Рик Дайал, Брент Бриско

Описание: Карл после совершенного им жестокого преступления провел двадцать пять лет в сумасшедшем доме. Возвратившись в город своей молодости, в один из южных штатов Америки, он ведет себя спокойно и разумно. Это помогает ему найти работу и подружиться с мальчиком и его матерью-вдовой. Однако появление отвратительного и грубого любовника этой женщины ставит Карла перед мучительным выбором и ведет к резким переменам в жизни всех, вовлеченных в эту историю.



Качество: HDRip-AVC
Формат: MKV
Видео кодек: AVC
Аудио кодек: AC3
Видео: AVC, 1024x432 (2.35:1), 23.976 fps, 1 875 Kbps (0.177 bit/pixel)
Аудио: AC-3, 48.0 KHz, 6 ch, 448 Kbps, CBR (Russian)
Специальный приз Национального совета обозревателей Билли Бобу Торнтону за достижения в кино, «Независимый дух» за дебют — по итогам 1996 года.
Оскар, 1997 год
Победитель (1):
Лучший адаптированный сценарий
Номинации (1):
Лучшая мужская роль (Билли Боб Торнтон)
Сатурн, 1997 год
Победитель (1):
Лучший молодой актер/актриса (Лукас Блэк)
Премия Гильдии актеров, 1997 год
Номинации (2):
Лучший актерский состав
Лучшая мужская роль (Билли Боб Торнтон)
x264 [info]: frame I:953 Avg QP:16.11 size: 91429 PSNR Mean Y:46.83 U:50.50 V:51.37 Avg:47.78 Global:47.33
x264 [info]: frame P:33659 Avg QP:18.62 size: 29676 PSNR Mean Y:43.83 U:48.57 V:49.54 Avg:44.94 Global:44.53
x264 [info]: frame B:158453 Avg QP:21.81 size: 5050 PSNR Mean Y:42.51 U:48.52 V:49.60 Avg:43.76 Global:43.21
x264 [info]: consecutive B-frames: 1.2% 1.4% 2.9% 10.9% 12.4% 19.9% 12.3% 36.8% 1.3% 0.5% 0.5%
x264 [info]: ref P L0: 40.7% 11.2% 18.0% 7.3% 7.0% 5.0% 5.1% 2.6% 2.9% 0.2% 0.0%
x264 [info]: ref B L0: 72.5% 10.6% 6.2% 3.5% 2.8% 2.5% 1.3% 0.5%
x264 [info]: ref B L1: 94.2% 5.8%
Формат : Matroska
Версия формата : Version 4 / Version 2
Размер файла : 2,18 Гбайт
Продолжительность : 2 ч. 14 м.
Общий поток : 2324 Кбит/сек
Название фильма : Sling Blade (1996) HDRip-AVC
Дата кодирования : UTC 2014-03-07 05:47:43
Программа кодирования : mkvmerge v6.8.0 ('Theme for Great Cities') 32bit built on Mar 2 2014 21:27:07
Библиотека кодирования : libebml v1.3.0 + libmatroska v1.4.1

Видео
Идентификатор : 1
Формат : AVC
Формат/Информация : Advanced Video Codec
Профиль формата : High@L4.1
Параметр CABAC формата : Да
Параметр ReFrames формата : 9 кадров
Идентификатор кодека : V_MPEG4/ISO/AVC
Продолжительность : 2 ч. 14 м.
Битрейт : 1875 Кбит/сек
Ширина : 1024 пикселя
Высота : 432 пикселя
Соотношение сторон : 2,40:1
Режим частоты кадров : Постоянный
Частота кадров : 23,976 кадра/сек
Цветовое пространство : YUV
Субдискретизация насыщенности : 4:2:0
Битовая глубина : 8 бит
Тип развёртки : Прогрессивная
Бит/(Пиксели*Кадры) : 0.177
Размер потока : 1,72 Гбайт (79%)
Заголовок : Rip ot kep
Библиотека кодирования : x264 core 138 r2358 9e941d1
Настройки программы : cabac=1 / ref=9 / deblock=1:-3:-2 / analyse=0x3:0x133 /
me=umh / subme=9 / psy=1 / psy_rd=1.00:0.00 / mixed_ref=1 / me_range=32 / chroma_me=1 /
trellis=2 / 8x8dct=1 / cqm=0 / deadzone=21,11 / fast_pskip=0 / chroma_qp_offset=-2 / threads=2 /
lookahead_threads=1 / sliced_threads=0 / nr=0 / decimate=1 / interlaced=0 / bluray_compat=0 /
constrained_intra=0 / bframes=10 / b_pyramid=2 / b_adapt=2 / b_bias=0 / direct=3 / weightb=1 /
open_gop=0 / weightp=2 / keyint=240 / keyint_min=23 / scenecut=40 / intra_refresh=0 /
rc_lookahead=60 / rc=2pass / mbtree=1 / bitrate=1875 / ratetol=1.0 / qcomp=0.60 / qpmin=10 /
qpmax=51 / qpstep=4 / cplxblur=20.0 / qblur=0.5 / ip_ratio=1.40 / aq=1:1.00
Язык : English
Default : Да
Forced : Нет

Аудио
Идентификатор : 2
Формат : AC-3
Формат/Информация : Audio Coding 3
Расширение режима : CM (complete main)
Параметр Endianness формата : Big
Идентификатор кодека : A_AC3
Продолжительность : 2 ч. 14 м.
Вид битрейта : Постоянный
Битрейт : 448 Кбит/сек
Каналы : 6 каналов
Расположение каналов : Front: L C R, Side: L R, LFE
Частота : 48,0 КГц
Битовая глубина : 16 бит
Метод сжатия : С потерями
Размер потока : 430 Мбайт (19%)
Заголовок : MVO
Язык : Russian
Default : Да
Forced : Нет

Текст #1
Идентификатор : 3
Формат : UTF-8
Идентификатор кодека : S_TEXT/UTF8
Идентификатор кодека/Информация : UTF-8 Plain Text
Заголовок : #1
Язык : Russian
Default : Да
Forced : Нет

Текст #2
Идентификатор : 4
Формат : UTF-8
Идентификатор кодека : S_TEXT/UTF8
Идентификатор кодека/Информация : UTF-8 Plain Text
Заголовок : #2
Язык : Russian
Default : Нет
Forced : Нет

Текст #3
Идентификатор : 5
Формат : UTF-8
Идентификатор кодека : S_TEXT/UTF8
Идентификатор кодека/Информация : UTF-8 Plain Text
Язык : Ukrainian
Default : Нет
Forced : Нет

Текст #4
Идентификатор : 6
Формат : UTF-8
Идентификатор кодека : S_TEXT/UTF8
Идентификатор кодека/Информация : UTF-8 Plain Text
Язык : English
Default : Нет
Forced : Нет

Сэмпл / Трейлер pb.wtf



Скачать Отточенное лезвие через торрент http://i2.imageban.ru/out/2014/03/08/181fb9288094ead34a931b65495f6ddc.png Скачать фильм Отточенное лезвие через торрент бесплантно в хорошем качестве Описание: Карл после совершенного им жестокого преступления провел двадцать пять лет в сумасшедшем доме. Возвратившись в город своей ... 9.3 10 6
× Info от релизера! Отточенное лезвие / Sling Blade
Info! Золотая раздача, скачанное не засчитывается.
Торрент: Зарегистрирован [2014-03-08 07:07] · скачан: 23 раз
Статус: √ проверено
Размер: 2.18 GB
Как cкачать? Как скачать Отточенное лезвие через торрент | qTorrent


>> Регистрируемся здесь <<






Отзывы и комментарии о схеме читаем и пишем здесь: ---> Отзывы и комментарии о схеме

Новые благодарочки в телеграм довольных пользователей:
скриншот   скриншот   скриншот   скриншот   скриншот

10-07-2015 16:33 Отточенное лезвие Скачать торрент  

10 из 10-ти pb.wtf



    Дорогой пользователь! Огромная просьба, поблагодарите релизера, оцените раздачу и оставьте свои комментарий, если Вы скачали Отточенное лезвие через торрент бесплатно! Внесите свою лепту в развитие PiratBit!
    Комментировать посты могут только пользователи прошедшие не сложную регистрацию
    Показать сообщения:    

    Отточенное лезвие через торрент
    Скачать бесплатно Отточенное лезвие
    Отточенное лезвие скачать торрент
    Отточенное лезвие смотреть онлайн
    Cкачать фильм Отточенное лезвие бесплатно
    Отточенное лезвие скачать торрент в хорошем качестве
    Отточенное лезвие смотреть онлайн бесплатно в хорошем качестве


    Вы не можете начинать темы
    Вы не можете отвечать на сообщения
    Вы не можете редактировать свои сообщения
    Вы не можете удалять свои сообщения
    Вы не можете голосовать в опросах
    Вы не можете прикреплять файлы к сообщениям
    Вы можете скачивать файлы