2 сезон

iTunes

1 сезон

1

iTunes

iTunes

iTunes

1 сезон

RePack

30

ИГРА 18+

pack

ВАЖНО

!!Акция!!

Alien_RageХит недели

RePack

MK11
pack

Забери бонус

RePack

jed

!!Акция!!

Alien_Rage

RePack

fifa19

RePack

Assassins Creed: Odyssey

RePack

NEED FOR SPEED™ PAYBACK

4 сезон

9 сезон

Бесстыжие 9 сезон

Все сериалы

все сериалы на PB.wtf

RePack

FAR CRY 5
  

Джеймси / Jamesy Boy (Тревор Уайт) [2014 г., драма, мелодрама, криминал, семейный, музыка, HDRip, Любительский одноголосый] pb.wtf

Джеймси через торрент pb.wtf

Размер: 1.45 GB | Добавлен: 6 лет 7 мес. назад | Торрент скачан:95 раз
Скачать  

08-03-2014 13:13 Джеймси Скачать торрент  

Джеймси / Jamesy Boy
Год выпуска: 2014
Страна: США / Star Thrower Entertainment, Synergics Films, Gama Entertainment Partners
Жанр: драма, мелодрама, криминал, семейный, музыка.
Продолжительность: 01:49:34
Перевод: Любительский одноголосый (datynet)

Режиссер: Тревор Уайт



В ролях: Таисса Фармига, Мэри-Луиз Паркер, Джеймс Вудс, Винг Рэймс, Роза Салазар, Спенсер Лофранко, Бен Розенфилд, Табу, Роберт Ф. Чю, Кен Арнольд.

Описание: Джеймс Берн вырос в неблагополучном районе города и в раннем возрасте уже стал членом бандитской группировки. Криминальная жизнь привела молодого человека к аресту, после чего его приговорили к тюремному заключению. Оказавшись в местах лишения свободы, парень начинает переосмысливать свою жизнь. У него достаточно много времени, чтобы поменять свое отношение к окружающему миру и постараться изменить самого себя. Несмотря на непростую ситуацию он продолжает верить в то, что у него получиться создать для себя чистое и прекрасное будущее, когда он выйдет на свободу. Однако сделать это будет очень не просто, ведь прошлое постоянно будет напоминать о себе...

Качество: HDRip
Формат: AVI
Видео кодек: XviD
Аудио кодек: AC3
Видео: 720x304 (2.37:1), 23.976 fps, XviD build 50 ~1695 kbps avg, 0.32 bit/pixel
Аудио: 48 kHz, AC3 Dolby Digital, 2/0 (L,R) ch, ~192 kbps


Общее
Полное имя : H:киноJamesy.Boy.2014.HDRip.avi.avi
Формат : AVI
Формат/Информация : Audio Video Interleave
Размер файла : 1,45 Гбайт
Продолжительность : 1 ч. 49 м.
Общий поток : 1897 Кбит/сек
Название фильма : Jamesy.Boy.2014.HDRip.avi
Режиссёр : Rip by coc900
Программа кодирования : VirtualDubMod 1.5.10.3 | www.virtualdub-fr.org || (build 2550/release)

Видео
Идентификатор : 0
Формат : MPEG-4 Visual
Профиль формата : Advanced Simple@L5
Параметр BVOP формата : 2
Параметр QPel формата : Нет
Параметр GMC формата : Без точки перехода
Параметр матрицы формата : Default (H.263)
Идентификатор кодека : XVID
Идентификатор кодека/Подсказка : XviD
Продолжительность : 1 ч. 49 м.
Битрейт : 1695 Кбит/сек
Ширина : 720 пикселей
Высота : 304 пикселя
Соотношение сторон : 2,35:1
Частота кадров : 23,976 кадра/сек
Цветовое пространство : YUV
Субдискретизация насыщенности : 4:2:0
Битовая глубина : 8 бит
Тип развёртки : Прогрессивная
Метод сжатия : С потерями
Бит/(Пиксели*Кадры) : 0.323
Размер потока : 1,30 Гбайт (89%)
Библиотека кодирования : XviD 1.2.1 (UTC 2008-12-04)

Аудио
Идентификатор : 1
Формат : AC-3
Формат/Информация : Audio Coding 3
Расширение режима : CM (complete main)
Параметр Endianness формата : Big
Идентификатор кодека : 2000
Продолжительность : 1 ч. 49 м.
Вид битрейта : Постоянный
Битрейт : 192 Кбит/сек
Каналы : 2 канала
Расположение каналов : Front: L R
Частота : 48,0 КГц
Битовая глубина : 16 бит
Метод сжатия : С потерями
Размер потока : 150 Мбайт (10%)
Выравнивание : Разделение по промежуткам
Продолжительность промежутка : 42 мс. (1,00 видеокадр)
Время предзагрузки промежутка : 500 мс.

pb.wtf



Скачать Джеймси через торрент http://pic.kartinco.top/images/6/j3x58.jpg Скачать фильм Джеймси через торрент бесплантно в хорошем качестве Описание: Джеймс Берн вырос в неблагополучном районе города и в раннем возрасте уже стал членом бандитской группировки. Криминальная жизнь ... 9.3 10 7
Торрент: Зарегистрирован [2014-03-08 13:13] · скачан: 95 раз
Статус: T временная
Размер: 1.45 GB
Как cкачать? Как скачать Джеймси через торрент | qTorrent

% Раздел Тема Автор DL S | L
T Фильмы (Blu-ray, BD-Remux, HDDVD) [ 16.29 GB ] Джеймси / Jamesy Boy [2014 BDRemux Любительский одноголосый] Ворон Скачать
1 | 0
T Фильмы 2014 (Звук TS, Cam, VO, DVO) [ 1.36 GB ] Джеймси / Jamesy Boy [2014 WEB-DLRip Любительский одноголосый] ninla Скачать
1 | 0

28-11-2019 20:33  

Отключить всю рекламу на сайте

08-03-2014 16:47 Джеймси Скачать торрент  

Выбор шрифта неудачный. Читается тяжело. Все сливается.pb.wtf



08-03-2014 17:07 Джеймси Скачать торрент  

gvosd писал(а):

Выбор шрифта неудачный. Читается тяжело. Все сливается.

Так сказал данный модератор "Raven",что бы был такой шрифт.Увы!pb.wtf



    Дорогой пользователь! Огромная просьба, поблагодарите релизера, оцените раздачу и оставьте свои комментарий, если Вы скачали Джеймси через торрент бесплатно! Внесите свою лепту в развитие PiratBit!
    Комментировать посты могут только пользователи прошедшие не сложную регистрацию
    Показать сообщения:    

    Джеймси через торрент
    Скачать бесплатно Джеймси
    Джеймси скачать торрент
    Джеймси смотреть онлайн
    Cкачать фильм Джеймси бесплатно
    Джеймси скачать торрент в хорошем качестве
    Джеймси смотреть онлайн бесплатно в хорошем качестве


    Вы не можете начинать темы
    Вы не можете отвечать на сообщения
    Вы не можете редактировать свои сообщения
    Вы не можете удалять свои сообщения
    Вы не можете голосовать в опросах
    Вы не можете прикреплять файлы к сообщениям
    Вы можете скачивать файлы