Ссылка на приватное зеркало нашего сайта всего за 1$. Внимание количество ограничено!!!

2 сезон

iTunes

1 сезон

1

iTunes

iTunes

iTunes

1 сезон

RePack

30

ИГРА 18+

pack

ВАЖНО

!!Акция!!

Alien_RageХит недели

RePack

MK11
pack

Забери бонус

RePack

jed

!!Акция!!

Alien_Rage

RePack

fifa19

RePack

Assassins Creed: Odyssey

RePack

NEED FOR SPEED™ PAYBACK

4 сезон

9 сезон

Бесстыжие 9 сезон

Все сериалы

все сериалы на PB.wtf

RePack

FAR CRY 5
  

Мистериум. Начало / Kvinden i buret (Миккель Нёргор / Mikkel Nørgaard) [ 2013 , Дания, Германия, Швеция , триллер, криминал, детектив , BDRip720 ]MVO pb.wtf

Мистериум. Начало через торрент pb.wtf

Размер: 4.27 GB | Добавлен: 6 лет 7 мес. назад | Торрент скачан:466 раз
Скачать  

09-03-2014 01:55 Мистериум. Начало Скачать торрент  

Мистериум. Начало / Kvinden i buret
"Ничто не забыто навсегда"

Год выпуска: 2013
Страна: Дания, Германия, Швеция
Жанр: триллер, криминал, детектив
Продолжительность: 01:36:33
Перевод: Профессиональный (многоголосый, закадровый)
Субтитры: Английские, датские (forced, SDH), финские, норвежские (Вшитые отключаемые)

Режиссер: Миккель Нёргор / Mikkel Nørgaard
Сценарий: Николай Арсель / Nikolaj Arcel, Юсси Адлер-Ольсен / Jussi Adler-Olsen
Продюсер: Петер Ольбек Йенсен / Peter Aalbæk Jensen, Луиза Вест / Louise Vesth, Йонас Баггер / Jonas Bagger, Карен Бентзон / Karen Bentzon, Мадлен Экман / Madeleine Ekman
Оператор: Эрик Кресс / Eric Kress
Композитор: Патрик Андрен / Patrik Andrén, Уно Хелмерссон / Uno Helmersson, Юхан Сёдерквист / Johan SГ¶derqvist

Николай Ли Каас (Carl Mørck), Фарес Фарес (Assad), Соня Рихтер (Merete Lynggaard), Клаус Маак Бансен (Meretes far), Marie Hammer Boda (Jespers kæreste), Nynne Bojsen (Socialrådgiver), Расмус Ботофт (Tage Baggesen), Эрнст Бойе (Uffe som barn), Michael Brostrup (Børge Bak), Кеннет Кармон (Mand på færge), Мари-Луиза Конинк (Ulla), Дивья Дас (Nyhedsvært)

Сборы в России: $2 517

Мировая премьера: 10 августа 2013

Описание:Экранизация приключений детективов Карла Мерке и Асада, работающих в Департаменте Q, занимающемся «глухарями». Взявшись за дело пятилетней давности об исчезновении женщины по имени Мерет они внезапно выходят на след маньяка-психопата, но преследуя его по всей стране, все равно на шаг отстают.

Рейтинг
kinopoisk.ru: 7.161 (75)
imdb.com: 7.10 (2689)

Качество: BDRip720
Формат: MKV
Видео кодек: AVC
Аудио кодек: AC3
Видео: 5500 Кбит/сек, 1280*534 (2,40:1), в 24,000 кадра/сек, AVC
Аудио №1: Русский 192 Кбит/сек, 48,0 КГц, 16 бит, 2 канала, AC-3
Аудио №2: Датский 640 Кбит/сек, 48,0 КГц, 16 бит, 6 каналов, AC-3

Общее
Кол-во : 284
Кол-во потоков такого типа : 1
Тип потока : General
Тип потока : Общее
Идентификатор типа потока : 0
Inform : Matroska: 4,27 Гбайт, 1 ч. 36 м.
Уникальный идентификатор : 179804836643149662668977512087900569882
Уникальный идентификатор : 179804836643149662668977512087900569882 (0x874526E328AD9D43A67F606182A6C11A)
Кол-во видеопотоков : 1
Кол-во аудиопотоков : 2
Кол-во текстовых потоков : 5
Кол-во потоков меню : 1
Video_Format_List : AVC
Video_Format_WithHint_List : AVC
Видеокодеки : AVC
Video_Language_List : Dutch
Audio_Format_List : AC-3 / AC-3
Audio_Format_WithHint_List : AC-3 / AC-3
Аудиокодеки : AC3 / AC3
Audio_Language_List : Russian / Danish
Text_Format_List : UTF-8 / UTF-8 / UTF-8 / UTF-8 / UTF-8
Text_Format_WithHint_List : UTF-8 / UTF-8 / UTF-8 / UTF-8 / UTF-8
Текстовые кодеки : UTF-8 / UTF-8 / UTF-8 / UTF-8 / UTF-8
Text_Language_List : English / Danish / Danish / Finnish / Norwegian
Полное имя : H:ТОРРЕНТЫМистериум.Начало.mkv
Имя папки : H:ТОРРЕНТЫ
Имя файла : Мистериум.Начало
Расширение : mkv
Формат : Matroska
Формат : Matroska
Формат/Ссылка : http://packs.matroska.org/
Формат/Используется в : mkv mk3d mka mks
Коммерческое название : Matroska
Версия формата : Version 4 / Version 2
Кодек : Matroska
Кодек : Matroska
Кодек/Ссылка : http://packs.matroska.org/
Кодек/Используется в : mkv mk3d mka mks
Размер файла : 4583929567
Размер файла : 4,27 Гбайт
Размер файла : 4 Гбайт
Размер файла : 4,3 Гбайт
Размер файла : 4,27 Гбайт
Размер файла : 4,269 Гбайт
Продолжительность : 5793888
Продолжительность : 1 ч. 36 м.
Продолжительность : 1 ч. 36 м. 33 с. 888 мс.
Продолжительность : 1 ч. 36 м.
Продолжительность : 01:36:33.888
Общий поток : 6329331
Общий поток : 6329 Кбит/сек
Размер потока : 91229124
Размер потока : 87,0 Мбайт (2%)
Размер потока : 87 Мбайт
Размер потока : 87 Мбайт
Размер потока : 87,0 Мбайт
Размер потока : 87,00 Мбайт
Размер потока : 87,0 Мбайт (2%)
Пропорции потока : 0.01990
Заголовок : Kvinden i buret (2013)
Название фильма : Kvinden i buret (2013)
Дата кодирования : UTC 2014-02-28 08:48:23
Дата файла : UTC 2014-03-09 01:19:56.155
Дата файла (местная) : 2014-03-09 08:19:56.155
Дата изменения файла : UTC 2014-03-09 01:32:03.545
Дата изменения файла (местная) : 2014-03-09 08:32:03.545
Программа кодирования : mkvmerge v6.6.0 ('The Edge Of The In Between') built on Dec 1 2013 17:55:00
Библиотека кодирования : libebml v1.3.0 + libmatroska v1.4.1
Библиотека кодирования : libebml v1.3.0 + libmatroska v1.4.1

Видео
Кол-во : 271
Кол-во потоков такого типа : 1
Тип потока : Video
Тип потока : Видео
Идентификатор типа потока : 0
StreamOrder : 0
Inform : Dutch, 5500 Кбит/сек, 1280*534 (2,40:1), в 24,000 кадра/сек, AVC (High@L4.1) (CABAC / 9 Ref Frames)
Идентификатор : 1
Идентификатор : 1
Уникальный идентификатор : 1
Формат : AVC
Формат/Информация : Advanced Video Codec
Формат/Ссылка : http://developers.videolan.org/x264.html
Коммерческое название : AVC
Профиль формата : High@L4.1
Настройки формата : CABAC / 9 Ref Frames
Параметр CABAC формата : Yes
Параметр CABAC формата : Да
Параметр ReFrames формата : 9
Параметр ReFrames формата : 9 кадров
Интернет-тип носителя : video/H264
Идентификатор кодека : V_MPEG4/ISO/AVC
Идентификатор кодека/Ссылка : http://ffdshow-tryout.sourceforge.net/
Кодек : V_MPEG4/ISO/AVC
Кодек : AVC
Кодек/Семейство : AVC
Кодек/Информация : Advanced Video Codec
Кодек/Ссылка : http://ffdshow-tryout.sourceforge.net/
Профиль кодека : High@L4.1
Настройки кодека : CABAC / 9 Ref Frames
Параметр CABAC кодека : Yes
Codec_Settings_RefFrames : 9
Продолжительность : 5793875
Продолжительность : 1 ч. 36 м.
Продолжительность : 1 ч. 36 м. 33 с. 875 мс.
Продолжительность : 1 ч. 36 м.
Продолжительность : 01:36:33.875
Битрейт : 5500000
Битрейт : 5500 Кбит/сек
Ширина : 1280
Ширина : 1280 пикселей
Высота : 534
Высота : 534 пикселя
Пропорции пикселя : 1.000
Соотношение сторон : 2.397
Соотношение сторон : 2,40:1
Режим частоты кадров : CFR
Режим частоты кадров : Постоянный
Частота кадров : 24.000
Частота кадров : 24,000 кадра/сек
Счётчик кадров : 139053
Разрешение : 8
Разрешение : 8 бит
Колориметрия : 4:2:0
Цветовое пространство : YUV
Субдискретизация насыщенности : 4:2:0
Битовая глубина : 8
Битовая глубина : 8 бит
Тип развёртки : Progressive
Тип развёртки : Прогрессивная
Переплетение : PPF
Переплетение : Прогрессивная
Бит/(Пиксели*Кадры) : 0.335
Задержка : 0
Задержка : 00:00:00.000
Задержка в оригинале : Container
Задержка в оригинале : Контейнер
Размер потока : 3890136091
Размер потока : 3,62 Гбайт (85%)
Размер потока : 4 Гбайт
Размер потока : 3,6 Гбайт
Размер потока : 3,62 Гбайт
Размер потока : 3,623 Гбайт
Размер потока : 3,62 Гбайт (85%)
Пропорции потока : 0.84865
Заголовок : Мистериум.Начало-Kvinden.i.buret.(2013).BDRip.[720p]
Библиотека кодирования : x264 - core 142 r2389 956c8d8
Библиотека кодирования : x264 core 142 r2389 956c8d8
Библиотека кодирования/Имя : x264
Библиотека кодирования/Version : core 142 r2389 956c8d8
Настройки программы : cabac=1 / ref=9 / deblock=1:-3:-3 / analyse=0x3:0x133 / me=umh / subme=10 / psy=1 / psy_rd=1.00:0.00 / mixed_ref=1 / me_range=32 / chroma_me=1 / trellis=2 / 8x8dct=1 / cqm=0 / deadzone=21,11 / fast_pskip=1 / chroma_qp_offset=-2 / threads=16 / lookahead_threads=2 / sliced_threads=0 / nr=0 / decimate=1 / interlaced=0 / bluray_compat=0 / constrained_intra=0 / bframes=7 / b_pyramid=2 / b_adapt=1 / b_bias=0 / direct=3 / weightb=1 / open_gop=0 / weightp=2 / keyint=250 / keyint_min=23 / scenecut=40 / intra_refresh=0 / rc_lookahead=0 / rc=2pass / mbtree=0 / bitrate=5500 / ratetol=1.0 / qcomp=0.65 / qpmin=0 / qpmax=40 / qpstep=4 / cplxblur=20.0 / qblur=0.5 / vbv_maxrate=50000 / vbv_bufsize=50000 / nal_hrd=none / filler=0 / ip_ratio=1.25 / pb_ratio=1.25 / aq=1:0.60
Язык : nl
Язык : Dutch
Язык : Dutch
Язык : nl
Язык : dut
Язык : nl
Default : Yes
Default : Да
Forced : No
Forced : Нет

Аудио #1
Кол-во : 244
Кол-во потоков такого типа : 2
Тип потока : Audio
Тип потока : Аудио
Идентификатор типа потока : 0
Позиция идентификатора типа потока : 1
StreamOrder : 1
Inform : Russian, 192 Кбит/сек, 48,0 КГц, 16 бит, 2 канала, AC-3
Идентификатор : 2
Идентификатор : 2
Уникальный идентификатор : 3307650696485894310
Формат : AC-3
Формат/Информация : Audio Coding 3
Коммерческое название : AC-3
Расширение режима : CM (complete main)
Параметр Endianness формата : Big
Идентификатор кодека : A_AC3
Кодек : AC3
Кодек : AC3
Кодек/Семейство : AC3
Кодек/Информация : Dolby AC3
Продолжительность : 5793888
Продолжительность : 1 ч. 36 м.
Продолжительность : 1 ч. 36 м. 33 с. 888 мс.
Продолжительность : 1 ч. 36 м.
Продолжительность : 01:36:33.888
Вид битрейта : CBR
Вид битрейта : Постоянный
Битрейт : 192000
Битрейт : 192 Кбит/сек
Каналы : 2
Каналы : 2 канала
Расположение каналов : Front: L R
Расположение каналов : 2/0/0
Частота : 48000
Частота : 48,0 КГц
Количество образцов : 278106624
Разрешение : 16
Разрешение : 16 бит
Битовая глубина : 16
Битовая глубина : 16 бит
Метод сжатия : Lossy
Метод сжатия : С потерями
Задержка : 0
Задержка : 00:00:00.000
Задержка в оригинале : Container
Задержка в оригинале : Контейнер
Задержка видео : 0
Задержка видео : 0
Размер потока : 139053312
Размер потока : 133 Мбайт (3%)
Размер потока : 133 Мбайт
Размер потока : 133 Мбайт
Размер потока : 133 Мбайт
Размер потока : 132,6 Мбайт
Размер потока : 133 Мбайт (3%)
Пропорции потока : 0.03033
Заголовок : AC3 2.0 / 192 kbps / MVO (Позитив по заказу Русского Репортажа, DVD)
Язык : ru
Язык : Russian
Язык : Russian
Язык : ru
Язык : rus
Язык : ru
Default : Yes
Default : Да
Forced : No
Forced : Нет
bsid : 8
dialnorm : -27
dialnorm/String : -27 dB
compr : -0.28
compr/String : -0.28 dB
dsurmod : 0
acmod : 2
lfeon : 0
dialnorm_Average : -27
dialnorm_Average/String : -27 dB
dialnorm_Minimum : -27
dialnorm_Minimum/String : -27 dB
dialnorm_Maximum : -27
dialnorm_Maximum/String : -27 dB
dialnorm_Count : 2
compr_Average : -0.28
compr_Average/String : -0.28 dB
compr_Minimum : -0.28
compr_Minimum/String : -0.28 dB
compr_Maximum : -0.28
compr_Maximum/String : -0.28 dB
compr_Count : 2

Аудио #2
Кол-во : 234
Кол-во потоков такого типа : 2
Тип потока : Audio
Тип потока : Аудио
Идентификатор типа потока : 1
Позиция идентификатора типа потока : 2
StreamOrder : 2
Inform : Danish, 640 Кбит/сек, 48,0 КГц, 16 бит, 6 каналов, AC-3
Идентификатор : 3
Идентификатор : 3
Уникальный идентификатор : 14866611406834422165
Формат : AC-3
Формат/Информация : Audio Coding 3
Коммерческое название : AC-3
Расширение режима : CM (complete main)
Параметр Endianness формата : Big
Идентификатор кодека : A_AC3
Кодек : AC3
Кодек : AC3
Кодек/Семейство : AC3
Кодек/Информация : Dolby AC3
Продолжительность : 5793888
Продолжительность : 1 ч. 36 м.
Продолжительность : 1 ч. 36 м. 33 с. 888 мс.
Продолжительность : 1 ч. 36 м.
Продолжительность : 01:36:33.888
Вид битрейта : CBR
Вид битрейта : Постоянный
Битрейт : 640000
Битрейт : 640 Кбит/сек
Каналы : 6
Каналы : 6 каналов
Расположение каналов : Front: L C R, Side: L R, LFE
Расположение каналов : 3/2/0.1
Частота : 48000
Частота : 48,0 КГц
Количество образцов : 278106624
Разрешение : 16
Разрешение : 16 бит
Битовая глубина : 16
Битовая глубина : 16 бит
Метод сжатия : Lossy
Метод сжатия : С потерями
Задержка : 0
Задержка : 00:00:00.000
Задержка в оригинале : Container
Задержка в оригинале : Контейнер
Задержка видео : 0
Задержка видео : 0
Размер потока : 463511040
Размер потока : 442 Мбайт (10%)
Размер потока : 442 Мбайт
Размер потока : 442 Мбайт
Размер потока : 442 Мбайт
Размер потока : 442,0 Мбайт
Размер потока : 442 Мбайт (10%)
Пропорции потока : 0.10112
Заголовок : AC3 5.1 / 640 kbps / Original
Язык : da
Язык : Danish
Язык : Danish
Язык : da
Язык : dan
Язык : da
Default : No
Default : Нет
Forced : No
Forced : Нет
bsid : 8
dialnorm : -31
dialnorm/String : -31 dB
acmod : 7
lfeon : 1
dialnorm_Average : -31
dialnorm_Average/String : -31 dB
dialnorm_Minimum : -31
dialnorm_Minimum/String : -31 dB
dialnorm_Maximum : -31
dialnorm_Maximum/String : -31 dB
dialnorm_Count : 2

Текст #1
Кол-во : 195
Кол-во потоков такого типа : 5
Тип потока : Text
Тип потока : Текст
Идентификатор типа потока : 0
Позиция идентификатора типа потока : 1
StreamOrder : 3
Inform : English, UTF-8
Идентификатор : 4
Идентификатор : 4
Уникальный идентификатор : 8313535262270670478
Формат : UTF-8
Коммерческое название : UTF-8
Идентификатор кодека : S_TEXT/UTF8
Идентификатор кодека/Информация : UTF-8 Plain Text
Кодек : S_TEXT/UTF8
Кодек : UTF-8
Кодек/Информация : UTF-8 Plain Text
Заголовок : Full
Язык : en
Язык : English
Язык : English
Язык : en
Язык : eng
Язык : en
Default : No
Default : Нет
Forced : No
Forced : Нет

Текст #2
Кол-во : 195
Кол-во потоков такого типа : 5
Тип потока : Text
Тип потока : Текст
Идентификатор типа потока : 1
Позиция идентификатора типа потока : 2
StreamOrder : 4
Inform : Danish, UTF-8
Идентификатор : 5
Идентификатор : 5
Уникальный идентификатор : 13071347249616721792
Формат : UTF-8
Коммерческое название : UTF-8
Идентификатор кодека : S_TEXT/UTF8
Идентификатор кодека/Информация : UTF-8 Plain Text
Кодек : S_TEXT/UTF8
Кодек : UTF-8
Кодек/Информация : UTF-8 Plain Text
Заголовок : Forced
Язык : da
Язык : Danish
Язык : Danish
Язык : da
Язык : dan
Язык : da
Default : No
Default : Нет
Forced : No
Forced : Нет

Текст #3
Кол-во : 195
Кол-во потоков такого типа : 5
Тип потока : Text
Тип потока : Текст
Идентификатор типа потока : 2
Позиция идентификатора типа потока : 3
StreamOrder : 5
Inform : Danish, UTF-8
Идентификатор : 6
Идентификатор : 6
Уникальный идентификатор : 8639537468377006218
Формат : UTF-8
Коммерческое название : UTF-8
Идентификатор кодека : S_TEXT/UTF8
Идентификатор кодека/Информация : UTF-8 Plain Text
Кодек : S_TEXT/UTF8
Кодек : UTF-8
Кодек/Информация : UTF-8 Plain Text
Заголовок : SDH
Язык : da
Язык : Danish
Язык : Danish
Язык : da
Язык : dan
Язык : da
Default : No
Default : Нет
Forced : No
Forced : Нет

Текст #4
Кол-во : 195
Кол-во потоков такого типа : 5
Тип потока : Text
Тип потока : Текст
Идентификатор типа потока : 3
Позиция идентификатора типа потока : 4
StreamOrder : 6
Идентификатор : 7
Идентификатор : 7
Уникальный идентификатор : 6578635704693073028
Формат : UTF-8
Коммерческое название : UTF-8
Идентификатор кодека : S_TEXT/UTF8
Идентификатор кодека/Информация : UTF-8 Plain Text
Кодек : S_TEXT/UTF8
Кодек : UTF-8
Кодек/Информация : UTF-8 Plain Text
Заголовок : Full
Язык : fi
Язык : Finnish
Язык : Finnish
Язык : fi
Язык : fin
Язык : fi
Default : No
Default : Нет
Forced : No
Forced : Нет

Текст #5
Кол-во : 195
Кол-во потоков такого типа : 5
Тип потока : Text
Тип потока : Текст
Идентификатор типа потока : 4
Позиция идентификатора типа потока : 5
StreamOrder : 7
Идентификатор : 8
Идентификатор : 8
Уникальный идентификатор : 3127800800273532835
Формат : UTF-8
Коммерческое название : UTF-8
Идентификатор кодека : S_TEXT/UTF8
Идентификатор кодека/Информация : UTF-8 Plain Text
Кодек : S_TEXT/UTF8
Кодек : UTF-8
Кодек/Информация : UTF-8 Plain Text
Заголовок : Full
Язык : no
Язык : Norwegian
Язык : Norwegian
Язык : no
Язык : nor
Язык : no
Default : No
Default : Нет
Forced : No
Forced : Нет

Меню
Кол-во : 87
Кол-во потоков такого типа : 1
Тип потока : Menu
Тип потока : Меню
Идентификатор типа потока : 0
Chapters_Pos_Begin : 77
Chapters_Pos_End : 87
00:00:00.000 : en:00:00:00.000
00:10:00.000 : en:00:10:00.000
00:19:59.542 : en:00:19:59.542
00:29:59.708 : en:00:29:59.708
00:39:59.750 : en:00:39:59.750
00:49:59.833 : en:00:49:59.833
00:59:59.625 : en:00:59:59.625
01:09:59.667 : en:01:09:59.667
01:19:59.708 : en:01:19:59.708
01:29:59.750 : en:01:29:59.750





pb.wtf



Скачать Мистериум. Начало через торрент http://pic.kartinco.top/images/6/5cu9u.jpg Скачать фильм Мистериум. Начало через торрент бесплантно в хорошем качестве Описание:Экранизация приключений детективов Карла Мерке и Асада, работающих в Департаменте Q, занимающемся «глухарями». Взявшись за дело ... 9.8 10 12
Info! Золотая раздача, скачанное не засчитывается.
Торрент: Зарегистрирован [2014-03-09 01:55] · скачан: 466 раз
Статус: T временная
Размер: 4.27 GB
Как cкачать? Как скачать Мистериум. Начало через торрент | qTorrent



Последний раз редактировалось: GEKADOL (2014-04-14 03:47), всего редактировалось 1 раз

28-11-2019 20:33  

Отключить всю рекламу на сайте

09-03-2014 18:10 Мистериум. Начало Скачать торрент  

хреново что нет русских субтитров. хотелось посмотреть на оригинале. англ. субтитры интересуют почему-то меньшеpb.wtf



    Дорогой пользователь! Огромная просьба, поблагодарите релизера, оцените раздачу и оставьте свои комментарий, если Вы скачали Мистериум. Начало через торрент бесплатно! Внесите свою лепту в развитие PiratBit!
    Комментировать посты могут только пользователи прошедшие не сложную регистрацию
    Показать сообщения:    

    Мистериум. Начало через торрент
    Скачать бесплатно Мистериум. Начало
    Мистериум. Начало скачать торрент
    Мистериум. Начало смотреть онлайн
    Cкачать фильм Мистериум. Начало бесплатно
    Мистериум. Начало скачать торрент в хорошем качестве
    Мистериум. Начало смотреть онлайн бесплатно в хорошем качестве


    Вы не можете начинать темы
    Вы не можете отвечать на сообщения
    Вы не можете редактировать свои сообщения
    Вы не можете удалять свои сообщения
    Вы не можете голосовать в опросах
    Вы не можете прикреплять файлы к сообщениям
    Вы можете скачивать файлы