Ссылка на приватное зеркало нашего сайта всего за 1$. Внимание количество ограничено!!!

2 сезон

iTunes

1 сезон

1

iTunes

iTunes

iTunes

1 сезон

RePack

30

ИГРА 18+

pack

ВАЖНО

!!Акция!!

Alien_RageХит недели

RePack

MK11
pack

Забери бонус

RePack

jed

!!Акция!!

Alien_Rage

RePack

fifa19

RePack

Assassins Creed: Odyssey

RePack

NEED FOR SPEED™ PAYBACK

4 сезон

9 сезон

Бесстыжие 9 сезон

Все сериалы

все сериалы на PB.wtf

RePack

FAR CRY 5
  

Слева от центра / Left of Center [ 2014, США , триллер , HDRip-AVC ]DVO pb.wtf

Слева от центра через торрент pb.wtf

Размер: 989 MB | Добавлен: 6 лет 7 мес. назад | Торрент скачан:317 раз
Скачать  

09-03-2014 02:53 Слева от центра Скачать торрент  

Слева от центра / Left of Center
«Некоторые линии никогда не должны пересекаться»

Год выпуска: 2014
Страна: США
Жанр: триллер
Продолжительность: 01:20:02
Перевод: Любительский (двухголосый)[HamsterStudio]
Субтитры: Русские (Вшитые отключаемые)

Сценарий: Брэнди Дженкинс / Brandi Jenkins
Продюсер: Ричард Халперн / Richard Halpern, Арт Д’Алессандро / Art D'Alessandro, Taylor Denny, Филлип Стюарт Халперн / Phillip Stewart Halpern
Композитор: Брукс Болл / Brooks Ball

Брайсон Бэйкер (Jon Ferguson), Джейсон Уилкинсон (Tom Parker), Джэми Харрис (Ellie Parker), Лорен Кастер (Laura), Brian Gililland (Scott Jackson), Там Джексон (Betty Ferguson), Дастин Уилсон (Trooper D. Wilson), Chris Harris (Joey), Дастин Чадуэлл (Sheriff), Scott Jenkins (OSBI Agent)

Описание:В маленьком городке в Северной Оклахоме, вдоль трассы 177, происходит серия убийств. В расследование оказываются вовлечены патрульный Джон Фергюсон и местный шеф полиции Том Паркер, которые оба лично заинтересованы найти убийцу. По ходу расследования двое мужчин сталкиваются с пугающими открытиями и тёмными секретами местной общины.

Рейтинг
kinopoisk.ru: 4.200 (27)
imdb.com: 5.90 (18)

Качество: HDRip-AVC
Формат: MKV
Видео кодек: AVC
Аудио кодек: AC3
Видео: 1244 Кбит/сек, 1120*480 (2,35:1), в 23,976 кадра/сек, AVC
Аудио №1: Русский 224 Кбит/сек, 48,0 КГц, 16 бит, 2 канала, AC-3
Аудио №2: Английский 224 Кбит/сек, 48,0 КГц, 16 бит, 2 канала, AC-3

Общее
Кол-во : 284
Кол-во потоков такого типа : 1
Тип потока : General
Тип потока : Общее
Идентификатор типа потока : 0
Inform : Matroska: 989 Мбайт, 1 ч. 20 м.
Уникальный идентификатор : 212946608877948304107430934290353127692
Уникальный идентификатор : 212946608877948304107430934290353127692 (0xA034066A4A8F478BB45315AE82D4810C)
Кол-во видеопотоков : 1
Кол-во аудиопотоков : 2
Кол-во текстовых потоков : 1
Video_Format_List : AVC
Video_Format_WithHint_List : AVC
Видеокодеки : AVC
Video_Language_List : English
Audio_Format_List : AC-3 / AC-3
Audio_Format_WithHint_List : AC-3 / AC-3
Аудиокодеки : AC3 / AC3
Audio_Language_List : Russian / English
Text_Format_List : UTF-8
Text_Format_WithHint_List : UTF-8
Текстовые кодеки : UTF-8
Text_Language_List : Russian
Полное имя : H:ТОРРЕНТЫСлева.mkv
Имя папки : H:ТОРРЕНТЫ
Имя файла : Слева
Расширение : mkv
Формат : Matroska
Формат : Matroska
Формат/Ссылка : http://packs.matroska.org/
Формат/Используется в : mkv mk3d mka mks
Коммерческое название : Matroska
Версия формата : Version 2
Кодек : Matroska
Кодек : Matroska
Кодек/Ссылка : http://packs.matroska.org/
Кодек/Используется в : mkv mk3d mka mks
Размер файла : 1036538831
Размер файла : 989 Мбайт
Размер файла : 989 Мбайт
Размер файла : 989 Мбайт
Размер файла : 989 Мбайт
Размер файла : 988,5 Мбайт
Продолжительность : 4802423
Продолжительность : 1 ч. 20 м.
Продолжительность : 1 ч. 20 м. 2 с. 423 мс.
Продолжительность : 1 ч. 20 м.
Продолжительность : 01:20:02.423
Общий поток : 1726693
Общий поток : 1727 Кбит/сек
Размер потока : 20626492
Размер потока : 19,7 Мбайт (2%)
Размер потока : 20 Мбайт
Размер потока : 20 Мбайт
Размер потока : 19,7 Мбайт
Размер потока : 19,67 Мбайт
Размер потока : 19,7 Мбайт (2%)
Пропорции потока : 0.01990
Дата кодирования : UTC 2014-03-04 06:55:03
Дата файла : UTC 2014-03-09 02:25:24.821
Дата файла (местная) : 2014-03-09 09:25:24.821
Дата изменения файла : UTC 2014-03-09 01:59:11.494
Дата изменения файла (местная) : 2014-03-09 08:59:11.494
Программа кодирования : mkvmerge v4.0.0 ('The Stars were mine') built on Jun 6 2010 16:18:42
Библиотека кодирования : libebml v1.0.0 + libmatroska v1.0.0
Библиотека кодирования : libebml v1.0.0 + libmatroska v1.0.0

Видео
Кол-во : 271
Кол-во потоков такого типа : 1
Тип потока : Video
Тип потока : Видео
Идентификатор типа потока : 0
StreamOrder : 0
Inform : 1244 Кбит/сек, 1120*480 (2,35:1), в 23,976 кадра/сек, AVC (High@L3.1) (CABAC / 4 Ref Frames)
Идентификатор : 1
Идентификатор : 1
Уникальный идентификатор : 1409932692
Формат : AVC
Формат/Информация : Advanced Video Codec
Формат/Ссылка : http://developers.videolan.org/x264.html
Коммерческое название : AVC
Профиль формата : High@L3.1
Настройки формата : CABAC / 4 Ref Frames
Параметр CABAC формата : Yes
Параметр CABAC формата : Да
Параметр ReFrames формата : 4
Параметр ReFrames формата : 4 кадра
Интернет-тип носителя : video/H264
Идентификатор кодека : V_MPEG4/ISO/AVC
Идентификатор кодека/Ссылка : http://ffdshow-tryout.sourceforge.net/
Кодек : V_MPEG4/ISO/AVC
Кодек : AVC
Кодек/Семейство : AVC
Кодек/Информация : Advanced Video Codec
Кодек/Ссылка : http://ffdshow-tryout.sourceforge.net/
Профиль кодека : High@L3.1
Настройки кодека : CABAC / 4 Ref Frames
Параметр CABAC кодека : Yes
Codec_Settings_RefFrames : 4
Продолжительность : 4802427
Продолжительность : 1 ч. 20 м.
Продолжительность : 1 ч. 20 м. 2 с. 427 мс.
Продолжительность : 1 ч. 20 м.
Продолжительность : 01:20:02.427
Битрейт : 1244332
Битрейт : 1244 Кбит/сек
Ширина : 1120
Ширина : 1120 пикселей
Высота : 480
Высота : 480 пикселей
Пропорции пикселя : 1.000
Соотношение сторон : 2.333
Соотношение сторон : 2,35:1
Режим частоты кадров : CFR
Режим частоты кадров : Постоянный
Частота кадров : 23.976
Частота кадров : 23,976 кадра/сек
Счётчик кадров : 115143
Разрешение : 8
Разрешение : 8 бит
Колориметрия : 4:2:0
Цветовое пространство : YUV
Субдискретизация насыщенности : 4:2:0
Битовая глубина : 8
Битовая глубина : 8 бит
Тип развёртки : Progressive
Тип развёртки : Прогрессивная
Переплетение : PPF
Переплетение : Прогрессивная
Бит/(Пиксели*Кадры) : 0.097
Задержка : 250
Задержка : 250 мс.
Задержка : 250 мс.
Задержка : 250 мс.
Задержка : 00:00:00.250
Задержка в оригинале : Container
Задержка в оригинале : Контейнер
Размер потока : 746976651
Размер потока : 712 Мбайт (72%)
Размер потока : 712 Мбайт
Размер потока : 712 Мбайт
Размер потока : 712 Мбайт
Размер потока : 712,4 Мбайт
Размер потока : 712 Мбайт (72%)
Пропорции потока : 0.72065
Библиотека кодирования : x264 - core 123 r2189 35cf912
Библиотека кодирования : x264 core 123 r2189 35cf912
Библиотека кодирования/Имя : x264
Библиотека кодирования/Version : core 123 r2189 35cf912
Настройки программы : cabac=1 / ref=3 / deblock=1:0:0 / analyse=0x3:0x133 / me=hex / subme=4 / psy=1 / psy_rd=1.00:0.00 / mixed_ref=1 / me_range=16 / chroma_me=1 / trellis=1 / 8x8dct=1 / cqm=0 / deadzone=21,11 / fast_pskip=1 / chroma_qp_offset=0 / threads=1 / sliced_threads=0 / nr=0 / decimate=1 / interlaced=0 / bluray_compat=0 / constrained_intra=0 / bframes=3 / b_pyramid=2 / b_adapt=1 / b_bias=0 / direct=1 / weightb=1 / open_gop=0 / weightp=2 / keyint=250 / keyint_min=25 / scenecut=40 / intra_refresh=0 / rc_lookahead=40 / rc=crf / mbtree=1 / crf=20.0 / qcomp=0.60 / qpmin=10 / qpmax=51 / qpstep=4 / ip_ratio=1.40 / aq=1:1.00
Default : Yes
Default : Да
Forced : No
Forced : Нет

Аудио #1
Кол-во : 235
Кол-во потоков такого типа : 2
Тип потока : Audio
Тип потока : Аудио
Идентификатор типа потока : 0
Позиция идентификатора типа потока : 1
StreamOrder : 1
Inform : Russian, 224 Кбит/сек, 48,0 КГц, 16 бит, 2 канала, AC-3
Идентификатор : 2
Идентификатор : 2
Уникальный идентификатор : 2457607812
Формат : AC-3
Формат/Информация : Audio Coding 3
Коммерческое название : AC-3
Расширение режима : CM (complete main)
Параметр Endianness формата : Big
Идентификатор кодека : A_AC3
Кодек : AC3
Кодек : AC3
Кодек/Семейство : AC3
Кодек/Информация : Dolby AC3
Продолжительность : 4802423
Продолжительность : 1 ч. 20 м.
Продолжительность : 1 ч. 20 м. 2 с. 423 мс.
Продолжительность : 1 ч. 20 м.
Продолжительность : 01:20:02.423
Вид битрейта : CBR
Вид битрейта : Постоянный
Битрейт : 224000
Битрейт : 224 Кбит/сек
Каналы : 2
Каналы : 2 канала
Расположение каналов : Front: L R
Расположение каналов : 2/0/0
Частота : 48000
Частота : 48,0 КГц
Количество образцов : 230516304
Разрешение : 16
Разрешение : 16 бит
Битовая глубина : 16
Битовая глубина : 16 бит
Метод сжатия : Lossy
Метод сжатия : С потерями
Задержка : 0
Задержка : 00:00:00.000
Задержка в оригинале : Container
Задержка в оригинале : Контейнер
Задержка видео : -250
Задержка видео : -250 мс.
Задержка видео : -250 мс.
Задержка видео : -250 мс.
Задержка видео : -00:00:00.250
Задержка видео : -250
Задержка видео : -250 мс.
Задержка видео : -250 мс.
Задержка видео : -250 мс.
Задержка видео : -00:00:00.250
Размер потока : 134467844
Размер потока : 128 Мбайт (13%)
Размер потока : 128 Мбайт
Размер потока : 128 Мбайт
Размер потока : 128 Мбайт
Размер потока : 128,2 Мбайт
Размер потока : 128 Мбайт (13%)
Пропорции потока : 0.12973
Заголовок : HamsterStudio
Язык : ru
Язык : Russian
Язык : Russian
Язык : ru
Язык : rus
Язык : ru
Default : Yes
Default : Да
Forced : Yes
Forced : Да
bsid : 8
dialnorm : -31
dialnorm/String : -31 dB
dsurmod : 0
acmod : 2
lfeon : 0
dialnorm_Average : -31
dialnorm_Average/String : -31 dB
dialnorm_Minimum : -31
dialnorm_Minimum/String : -31 dB
dialnorm_Maximum : -31
dialnorm_Maximum/String : -31 dB
dialnorm_Count : 2

Аудио #2
Кол-во : 235
Кол-во потоков такого типа : 2
Тип потока : Audio
Тип потока : Аудио
Идентификатор типа потока : 1
Позиция идентификатора типа потока : 2
StreamOrder : 2
Inform : English, 224 Кбит/сек, 48,0 КГц, 16 бит, 2 канала, AC-3
Идентификатор : 3
Идентификатор : 3
Уникальный идентификатор : 1341821100
Формат : AC-3
Формат/Информация : Audio Coding 3
Коммерческое название : AC-3
Расширение режима : CM (complete main)
Параметр Endianness формата : Big
Идентификатор кодека : A_AC3
Кодек : AC3
Кодек : AC3
Кодек/Семейство : AC3
Кодек/Информация : Dolby AC3
Продолжительность : 4802423
Продолжительность : 1 ч. 20 м.
Продолжительность : 1 ч. 20 м. 2 с. 423 мс.
Продолжительность : 1 ч. 20 м.
Продолжительность : 01:20:02.423
Вид битрейта : CBR
Вид битрейта : Постоянный
Битрейт : 224000
Битрейт : 224 Кбит/сек
Каналы : 2
Каналы : 2 канала
Расположение каналов : Front: L R
Расположение каналов : 2/0/0
Частота : 48000
Частота : 48,0 КГц
Количество образцов : 230516304
Разрешение : 16
Разрешение : 16 бит
Битовая глубина : 16
Битовая глубина : 16 бит
Метод сжатия : Lossy
Метод сжатия : С потерями
Задержка : 0
Задержка : 00:00:00.000
Задержка в оригинале : Container
Задержка в оригинале : Контейнер
Задержка видео : -250
Задержка видео : -250 мс.
Задержка видео : -250 мс.
Задержка видео : -250 мс.
Задержка видео : -00:00:00.250
Задержка видео : -250
Задержка видео : -250 мс.
Задержка видео : -250 мс.
Задержка видео : -250 мс.
Задержка видео : -00:00:00.250
Размер потока : 134467844
Размер потока : 128 Мбайт (13%)
Размер потока : 128 Мбайт
Размер потока : 128 Мбайт
Размер потока : 128 Мбайт
Размер потока : 128,2 Мбайт
Размер потока : 128 Мбайт (13%)
Пропорции потока : 0.12973
Заголовок : Original
Язык : en
Язык : English
Язык : English
Язык : en
Язык : eng
Язык : en
Default : No
Default : Нет
Forced : No
Forced : Нет
bsid : 8
dialnorm : -31
dialnorm/String : -31 dB
dsurmod : 0
acmod : 2
lfeon : 0
dialnorm_Average : -31
dialnorm_Average/String : -31 dB
dialnorm_Minimum : -31
dialnorm_Minimum/String : -31 dB
dialnorm_Maximum : -31
dialnorm_Maximum/String : -31 dB
dialnorm_Count : 2

Текст
Кол-во : 195
Кол-во потоков такого типа : 1
Тип потока : Text
Тип потока : Текст
Идентификатор типа потока : 0
StreamOrder : 3
Inform : Russian, UTF-8
Идентификатор : 4
Идентификатор : 4
Уникальный идентификатор : 1637530241
Формат : UTF-8
Коммерческое название : UTF-8
Идентификатор кодека : S_TEXT/UTF8
Идентификатор кодека/Информация : UTF-8 Plain Text
Кодек : S_TEXT/UTF8
Кодек : UTF-8
Кодек/Информация : UTF-8 Plain Text
Заголовок : Antonio
Язык : ru
Язык : Russian
Язык : Russian
Язык : ru
Язык : rus
Язык : ru
Default : No
Default : Нет
Forced : No
Forced : Нет





pb.wtf



Скачать Слева от центра через торрент http://pic.kartinco.top/images/6/r18rq.jpg Скачать фильм Слева от центра через торрент бесплантно в хорошем качестве Описание:В маленьком городке в Северной Оклахоме, вдоль трассы 177, происходит серия убийств. В расследование оказываются вовлечены ... 10 10 13
Торрент: Зарегистрирован [2014-03-09 02:53] · скачан: 317 раз
Статус: T временная
Размер: 989 MB
Как cкачать? Как скачать Слева от центра через торрент | qTorrent

28-11-2019 20:33  

Отключить всю рекламу на сайте

    Дорогой пользователь! Огромная просьба, поблагодарите релизера, оцените раздачу и оставьте свои комментарий, если Вы скачали Слева от центра через торрент бесплатно! Внесите свою лепту в развитие PiratBit!
    Комментировать посты могут только пользователи прошедшие не сложную регистрацию
    Показать сообщения:    

    Слева от центра через торрент
    Скачать бесплатно Слева от центра
    Слева от центра скачать торрент
    Слева от центра смотреть онлайн
    Cкачать фильм Слева от центра бесплатно
    Слева от центра скачать торрент в хорошем качестве
    Слева от центра смотреть онлайн бесплатно в хорошем качестве


    Вы не можете начинать темы
    Вы не можете отвечать на сообщения
    Вы не можете редактировать свои сообщения
    Вы не можете удалять свои сообщения
    Вы не можете голосовать в опросах
    Вы не можете прикреплять файлы к сообщениям
    Вы можете скачивать файлы