MEGA SALE -50% FORZA HORIZON 4 ULTIMATE+ВСЕ DLC+ОНЛАЙН всего за 599р. 299 руб. (супер цена). Внимание количество ограничено!!!

iTunes

1+1

iTunes

мы

iTunes

1

iTunes

Чернобыль

iTunes

Ральф против интернета

Лицензия

ПШазам

Лицензия

Игра престолов

Лицензия

30
pack

ВАЖНО

!!Акция!!

Alien_RageХит недели

RePack

Resident Evil 21

ИГРА 18+

pack

RePack

Metro:Exodus

!!Акция!!

Alien_Rage

RePack

fifa19

RePack

Assassins Creed: Odyssey

RePack

NEED FOR SPEED™ PAYBACK

3 сезон

9 сезон

Бесстыжие 9 сезон

Все сериалы

все сериалы на PB.wtf

RePack

FAR CRY 5
Ребята, катастрофически не хватает 7730р. для оплаты серверов за АВГУСТ (всвязи с блокировками трафик упал в 3 раза), 1-2р., выручайте.
  

Перекрестный огонь / Bad Country (Крис Бринкер / Chris Brinker) [ 2014 , США , боевик, триллер, драма , DVDRip ]MVO [лицензия] pb.wtf

Перекрестный огонь через торрент pb.wtf

Размер: 1.46 GB | Добавлен: 5 лет 6 мес. назад | Торрент скачан:7092 раза
Скачать  

09-03-2014 03:24 Перекрестный огонь Скачать торрент  

Перекрестный огонь / Bad Country
Год выпуска: 2014
Страна: США
Жанр: боевик, триллер, драма, криминал, детектив
Продолжительность: 01:40:06
Перевод: Профессиональный (многоголосый, закадровый) [лицензия]
Субтитры: Нет

Режиссер: Крис Бринкер / Chris Brinker
Сценарий: Джонатан Гиршбейн / Jonathan Hirschbein, Том Абернати / Tom Abernathy, Mike Barnett, Дон ’Бад’ Коннор / Don «Bud» Connor, Don 'Bud'Connor
Продюсер: Скотт Эйнбиндер / Scott Einbinder, Нэнси Грин-Кийз / Nancy Green-Keyes, Мэттью А. Родс / Matthew Rhodes, Крис Бринкер / Chris Brinker, Кевин Чэпмен / Kevin Chapman
Оператор: Зоран Попович / Zoran Popovic
Композитор: Джефф Дэнна / Jeff Danna, Джон Фи / John Fee

Мэтт Диллон (Jesse Weiland), Нил МакДонаф (Kiersey), Эми Смарт (Lynn Weiland), Уиллем Дефо (Bud Carter), Том Беренджер (Lutin), Билл Дьюк (Nokes), Дж.Д. Эвермор (Murphy - Captain of the Guards), Крис Маркетт (Fitch), Кевин Чэпмен (Morris), Кристофер Денэм (Tommy Weiland), Фред Уэллер (Shepherd), Алекс Соловиц (Buzz McKinnnon)

Мировая премьера: 10 марта 2014

Описание:Фильм снят по реальным событиям. Расследование детектива Бада Картера приводит к аресту Джесси Вейланда, наемного убийцы из преступного синдиката. Вейланд осознает, что попав в тюрьму, он потеряет свою семью, и решает довериться Картеру, став его информатором.

Рейтинг

Качество: DVDRip
Формат: AVI
Видео кодек: XviD
Аудио кодек: AC3
Видео: 1690 Кбит/сек, 720*400 (16:9), в 25,000 кадров/сек, MPEG-4 Visual (XviD)
Аудио: 384 Кбит/сек, 48,0 КГц, 16 бит, 6 каналов, AC-3

Общее
Кол-во : 284
Кол-во потоков такого типа : 1
Тип потока : General
Тип потока : Общее
Идентификатор типа потока : 0
Inform : AVI: 1,46 Гбайт, 1 ч. 40 м.
Кол-во видеопотоков : 1
Кол-во аудиопотоков : 1
Video_Format_List : MPEG-4 Visual
Video_Format_WithHint_List : MPEG-4 Visual (XviD)
Видеокодеки : XviD
Audio_Format_List : AC-3
Audio_Format_WithHint_List : AC-3
Аудиокодеки : AC3
Полное имя : H:ТОРРЕНТЫПерекрестный_огонь.avi
Имя папки : H:ТОРРЕНТЫ
Имя файла : Перекрестный_огонь
Расширение : avi
Формат : AVI
Формат : AVI
Формат/Информация : Audio Video Interleave
Формат/Используется в : avi
Коммерческое название : AVI
Интернет-тип носителя : video/vnd.avi
Чередующаяся : Yes
Кодек : AVI
Кодек : AVI
Кодек/Информация : Audio Video Interleave
Кодек/Используется в : avi
Размер файла : 1564323840
Размер файла : 1,46 Гбайт
Размер файла : 1 Гбайт
Размер файла : 1,5 Гбайт
Размер файла : 1,46 Гбайт
Размер файла : 1,457 Гбайт
Продолжительность : 6006480
Продолжительность : 1 ч. 40 м.
Продолжительность : 1 ч. 40 м. 6 с. 480 мс.
Продолжительность : 1 ч. 40 м.
Продолжительность : 01:40:06.480
Общий поток : 2083515
Общий поток : 2084 Кбит/сек
Размер потока : 7294196
Размер потока : 6,96 Мбайт (0%)
Размер потока : 7 Мбайт
Размер потока : 7,0 Мбайт
Размер потока : 6,96 Мбайт
Размер потока : 6,956 Мбайт
Размер потока : 6,96 Мбайт (0%)
Пропорции потока : 0.00466
Дата файла : UTC 2014-03-09 03:11:07.837
Дата файла (местная) : 2014-03-09 10:11:07.837
Дата изменения файла : UTC 2014-03-09 03:10:04.963
Дата изменения файла (местная) : 2014-03-09 10:10:04.963
Программа кодирования : VirtualDubMod 1.5.10.2 (build 2540/release)
Библиотека кодирования : VirtualDubMod build 2540/release
Библиотека кодирования : VirtualDubMod build 2540/release

Видео
Кол-во : 271
Кол-во потоков такого типа : 1
Тип потока : Video
Тип потока : Видео
Идентификатор типа потока : 0
StreamOrder : 0
Inform : 1690 Кбит/сек, 720*400 (16:9), в 25,000 кадров/сек, MPEG-4 Visual (XviD) (Advanced Simple@L5) (BVOP2 / Custom Matrix)
Идентификатор : 0
Идентификатор : 0
Формат : MPEG-4 Visual
Коммерческое название : MPEG-4 Visual
Профиль формата : Advanced Simple@L5
Настройки формата : BVOP2 / Custom Matrix
Параметр BVOP формата : 2
Параметр BVOP формата : 2
Параметр QPel формата : No
Параметр QPel формата : Нет
Параметр GMC формата : 0
Параметр GMC формата : Без точки перехода
Параметр матрицы формата : Custom
Параметр матрицы формата : Выборочная
Format_Settings_Matrix_Data : 080A0A0B0B0B0B0B0B0B0C0C0C0C0C0D0D0D0D0D0D0E0E0E0E0E0E0E10101010101010101111121212111113141515141317181918171E20201E282B28353546 / 0D0E0E0F0F0F0F0F0F0F1010101010121212121212141414141414141616161616161616181819191918181B1C1D1D1C1B20212221202A2D2D2A383C384A4A62
Интернет-тип носителя : video/MP4V-ES
Идентификатор кодека : XVID
Идентификатор кодека/Подсказка : XviD
Идентификатор кодека/Ссылка : http://mediaarea.net/XVID
Кодек : XVID
Кодек : XviD
Кодек/Семейство : MPEG-4V
Кодек/Информация : XviD project
Кодек/Ссылка : http://www.xvid.org/Downloads.15.0.html
Кодек/CC : XVID
Профиль кодека : Advanced Simple@L5
Настройки кодека : BVOP / Custom Matrix
Параметр пакетного потока данных кодека : No
Параметр BVOP кодека : Yes
Параметр QPel кодека : No
Параметр GMC кодека : 0
Параметр GMC кодека : Без точки перехода
Параметр матрицы кодека : Custom
Продолжительность : 6006480
Продолжительность : 1 ч. 40 м.
Продолжительность : 1 ч. 40 м. 6 с. 480 мс.
Продолжительность : 1 ч. 40 м.
Продолжительность : 01:40:06.480
Битрейт : 1689800
Битрейт : 1690 Кбит/сек
Ширина : 720
Ширина : 720 пикселей
Высота : 400
Высота : 400 пикселей
Пропорции пикселя : 1.000
Соотношение сторон : 1.800
Соотношение сторон : 16:9
Частота кадров : 25.000
Частота кадров : 25,000 кадров/сек
Счётчик кадров : 150162
Разрешение : 8
Разрешение : 8 бит
Колориметрия : 4:2:0
Цветовое пространство : YUV
Субдискретизация насыщенности : 4:2:0
Битовая глубина : 8
Битовая глубина : 8 бит
Тип развёртки : Progressive
Тип развёртки : Прогрессивная
Переплетение : PPF
Переплетение : Прогрессивная
Метод сжатия : Lossy
Метод сжатия : С потерями
Бит/(Пиксели*Кадры) : 0.235
Задержка : 0
Задержка : 00:00:00.000
Размер потока : 1268718604
Размер потока : 1,18 Гбайт (81%)
Размер потока : 1 Гбайт
Размер потока : 1,2 Гбайт
Размер потока : 1,18 Гбайт
Размер потока : 1,182 Гбайт
Размер потока : 1,18 Гбайт (81%)
Пропорции потока : 0.81103
Библиотека кодирования : XviD0050
Библиотека кодирования : XviD 1.2.1 (UTC 2008-12-04)
Библиотека кодирования/Имя : XviD
Библиотека кодирования/Version : 1.2.1
Библиотека кодирования/Дата : UTC 2008-12-04

Аудио
Кол-во : 234
Кол-во потоков такого типа : 1
Тип потока : Audio
Тип потока : Аудио
Идентификатор типа потока : 0
StreamOrder : 1
Inform : 384 Кбит/сек, 48,0 КГц, 16 бит, 6 каналов, AC-3
Идентификатор : 1
Идентификатор : 1
Формат : AC-3
Формат/Информация : Audio Coding 3
Коммерческое название : AC-3
Расширение режима : CM (complete main)
Параметр Endianness формата : Big
Идентификатор кодека : 2000
Кодек : AC3
Кодек : AC3
Кодек/Семейство : AC3
Кодек/Информация : Dolby AC3
Кодек/CC : 2000
Продолжительность : 6006480
Продолжительность : 1 ч. 40 м.
Продолжительность : 1 ч. 40 м. 6 с. 480 мс.
Продолжительность : 1 ч. 40 м.
Продолжительность : 01:40:06.480
Вид битрейта : CBR
Вид битрейта : Постоянный
Битрейт : 384000
Битрейт : 384 Кбит/сек
Каналы : 6
Каналы : 6 каналов
Расположение каналов : Front: L C R, Side: L R, LFE
Расположение каналов : 3/2/0.1
Частота : 48000
Частота : 48,0 КГц
Количество образцов : 288311040
Разрешение : 16
Разрешение : 16 бит
Битовая глубина : 16
Битовая глубина : 16 бит
Метод сжатия : Lossy
Метод сжатия : С потерями
Задержка : 0
Задержка : 00:00:00.000
Задержка в оригинале : Stream
Задержка в оригинале : 'Сырой' поток
Задержка видео : 0
Задержка видео : 0
Размер потока : 288311040
Размер потока : 275 Мбайт (18%)
Размер потока : 275 Мбайт
Размер потока : 275 Мбайт
Размер потока : 275 Мбайт
Размер потока : 275,0 Мбайт
Размер потока : 275 Мбайт (18%)
Пропорции потока : 0.18430
Выравнивание : Split
Выравнивание : Разделение по промежуткам
Продолжительность промежутка : 1.00
Продолжительность промежутка : 40
Продолжительность промежутка : 40 мс. (1,00 видеокадр)
Время предзагрузки промежутка : 500
Время предзагрузки промежутка : 500 мс.
bsid : 8
dialnorm : -31
dialnorm/String : -31 dB
acmod : 7
lfeon : 1
dialnorm_Average : -31
dialnorm_Average/String : -31 dB
dialnorm_Minimum : -31
dialnorm_Minimum/String : -31 dB
dialnorm_Maximum : -31
dialnorm_Maximum/String : -31 dB
dialnorm_Count : 389





pb.wtf



Скачать Перекрестный огонь через торрент http://pic.kartinco.top/images/6/liwla.jpg Скачать фильм Перекрестный огонь через торрент бесплантно в хорошем качестве Описание:Фильм снят по реальным событиям. Расследование детектива Бада Картера приводит к аресту Джесси Вейланда, наемного убийцы из ... 9.7 10 135
Info! Золотая раздача, скачанное не засчитывается.
Торрент: Зарегистрирован [2014-03-09 03:24] · скачан: 7 092 раз
Статус: √ проверено
Размер: 1.46 GB
Как cкачать? Как скачать Перекрестный огонь через торрент | qTorrent

% Раздел Тема Автор DL S | L
Фильмы (DVD фильмы) [ 5.03 GB ] Перекрестный огонь / Bad Country [2014 DVD9] R5 voovaz Скачать
1 | 0
Фильмы (Blu-ray, BD-Remux, HDDVD) [ 22.19 GB ] Перекрестный огонь / Bad Country [2014 BDRemux 1080p] MVO () Ворон Скачать
1 | 0
Фильмы (WEB-DL 720p, 1080p) [ 3.61 GB ] Перекрестный огонь / Bad Country [2014 WEB-DL 720p] MVO diletant Скачать
1 | 0


Последний раз редактировалось: GEKADOL (2014-04-14 03:39), всего редактировалось 1 раз


>> Регистрируемся здесь <<






Отзывы и комментарии о схеме читаем и пишем здесь: ---> Отзывы и комментарии о схеме

Новые благодарочки в телеграм довольных пользователей:
скриншот   скриншот   скриншот   скриншот   скриншот

09-03-2014 07:52 Перекрестный огонь Скачать торрент  

взят 184 раза, тишина, ни одного коммента. посмотрим, спасибоpb.wtf



09-03-2014 08:39 Перекрестный огонь Скачать торрент  

ivses
У нас народ не особо разговорчив)))pb.wtf



09-03-2014 08:52 Перекрестный огонь Скачать торрент  

Raven писал(а):

ivses
У нас народ не особо разговорчив)))

Это точно подмечено :hmmmpb.wtf



09-03-2014 09:28 Перекрестный огонь Скачать торрент  

фильм ни о чем... пустая трата времениpb.wtf



09-03-2014 11:25 Перекрестный огонь Скачать торрент  

Фильм на раз.pb.wtf



09-03-2014 13:17 Перекрестный огонь Скачать торрент  

Валера888 писал(а):

Фильм на раз.

Ну раз - на раз, посмотрим раз pb.wtf



09-03-2014 13:27 Перекрестный огонь Скачать торрент  

шикарное киноpb.wtf



10-03-2014 10:52 Перекрестный огонь Скачать торрент  

стандартный боевичок на один раз,вроде и не г.....,но и не супер,4 с большим минусомpb.wtf



11-03-2014 16:21 Перекрестный огонь Скачать торрент  

Рейтинг 5.7 на кинопоиске, гамнище еще то наверное...pb.wtf



15-04-2014 20:26 Перекрестный огонь Скачать торрент  

не чего не понял придется глянутьpb.wtf



20-04-2014 18:10 Перекрестный огонь Скачать торрент  

Цитата:

Перекрестный огонь / Bad Country (Крис Бринкер / Chris Brinker) [ 2014 , США , боевик, триллер, драма , DVDRip ]MVO [лицензия]

Охрененный фильм! побольше бы сейчас таких, а те, кто пишет на раз- смотрите трансформеры
pb.wtf



19-05-2014 11:39 Перекрестный огонь Скачать торрент  

megavolt_08 писал(а):

Рейтинг 5.7 на кинопоиске, гамнище еще то наверное...

Рейтинг кинопоиска еще не показатель
pb.wtf



21-05-2014 11:10 Перекрестный огонь Скачать торрент  

фильм одно болобонье,тошнотаpb.wtf



29-06-2014 14:42 Перекрестный огонь Скачать торрент  

Спасибо за раздачу.
pb.wtf



27-07-2014 17:24 Перекрестный огонь Скачать торрент  

основная идея фильма была передать атмосферу тех лет - ограничились только усамиpb.wtf



Друзья, наш проект PiratBit построен на чистом энтузиазме. Денег от рекламы он приносит мало, потому как нет хороших, богатых рекламодателей, которые бы хотели работать с сайтами, которые нарушают законодательство той или иной страны, да и вешать какую-то шлако-рекламу с вирусами тоже мы не хотим, поскольку мы уважаем своих пользователей и Ваша безопасность на нашем сайте для нас превыше всего. В связи с этим, мы вынуждены просить помощи у каждого из Вас. Каких-то 3, 5, 10 рублей для каждого из Вас по большому счету копейки, а для нас это будет хорошая поддержка.
Нашими приоритетами всегда были качество и быстрота везде и во всем!!!
Технически так сложилось, чтобы все "летало" мы используем 4 мощных абузоустойчивых сервера, каждый из которых стоит 100$ в месяц.
Ребята, мы будем рады любой помощи, надеюсь на понимание Devi...

Важно, если ваш платеж составляет больше 100 руб.(единоразово) то мы для вас отключим рекламу на месяц, 200=2мес., 300=3мес., 400=4мес., если больше чем 499 руб.(единоразово) то на 6 месяцев, УКАЗЫВАЙТЕ СВОЙ НИК В ПРИМЕЧАНИИ К ПЛАТЕЖУ!

QIWI
Яндекс деньги,MasterCard,Maestro,Visa
WebMoney,Steam,Payeer,СберБанк,Мобильный,BitCoin,PayPal
    Дорогой пользователь! Огромная просьба, поблагодарите релизера, оцените раздачу и оставьте свои комментарий, если Вы скачали Перекрестный огонь через торрент бесплатно! Внесите свою лепту в развитие PiratBit!
    Комментировать посты могут только пользователи прошедшие не сложную регистрацию
    Показать сообщения:    

    Перекрестный огонь через торрент
    Скачать бесплатно Перекрестный огонь
    Перекрестный огонь скачать торрент
    Перекрестный огонь смотреть онлайн
    Cкачать фильм Перекрестный огонь бесплатно
    Перекрестный огонь скачать торрент в хорошем качестве
    Перекрестный огонь смотреть онлайн бесплатно в хорошем качестве


    Вы не можете начинать темы
    Вы не можете отвечать на сообщения
    Вы не можете редактировать свои сообщения
    Вы не можете удалять свои сообщения
    Вы не можете голосовать в опросах
    Вы не можете прикреплять файлы к сообщениям
    Вы можете скачивать файлы