Ссылка на приватное зеркало всего за 1$. Внимание количество ограничено!!!


iTunes

1+1

iTunes

мы

WEB-DL

1

iTunes

Чернобыль

iTunes

Ральф против интернета

Лицензия

ПШазам

Лицензия

Оно 2

WEB-DL

30
pack

Вам бонус

ВАЖНО

!!Акция!!

Alien_RageХит недели

RePack

Resident Evil 21

ИГРА 18+

pack

RePack

jed

!!Акция!!

Alien_Rage

RePack

fifa19

RePack

Assassins Creed: Odyssey

RePack

NEED FOR SPEED™ PAYBACK

4 сезон

9 сезон

Бесстыжие 9 сезон

Все сериалы

все сериалы на PB.wtf

RePack

FAR CRY 5
Ребята, катастрофически не хватает 1900р. для оплаты серверов за Октябрь (всвязи с блокировками трафик упал в 3 раза), 1-2р., выручайте.
  

Добрый сынок / The Good Son (Джозеф Рубин) [1993 г., ужасы, триллер, драма, WEB-DLRip-AVC, MVO, AVO, Original, SUB] от R.G. PiratFilms pb.wtf

Добрый сынок через торрент pb.wtf

Размер: 2.17 GB | Добавлен: 5 лет 9 мес. назад | Торрент скачан:45 раз
Скачать  

09-03-2014 05:39 Добрый сынок Скачать торрент  

Добрый сынок / The Good Son

Год выпуска: 1993
Страна: США
Жанр: ужасы, триллер, драма
Продолжительность: 01:26:00
Перевод: Профессиональный многоголосый + Авторский
Оригинальная дорожка: English
Субтитры: English

Режиссер: Джозеф Рубин
Продюссер: Мэри Энн Пейдж, Джозеф Рубин, Дэниэл Рогозин
Сценарий: Иэн МакЮэн
Бюджет: $17 000 000
Премьера в мире: 24 сентября 1993

IMDB 6.30 (23 590)


В ролях: Маколей Калкин, Элайджа Вуд, Венди Крюсон, Дэвид Морс, Дэниэл Хью Келли, Жаклин Брукс, Куинн Калкин, Эшли Кроу, Гай Штраусс, Кейт Брава

Описание: Генри Эванс — чудный и послушный мальчик. Генри обожает игры. В особенности милы его сердцу игры со смертельным исходом.Ни его любящие родители, ни верная сестренка понятия не имеют, что за очаровательной, ангельской улыбкой Генри скрывается зловещая, дьявольская сущность. Лишенная жалости, сопереживания и жаждущая крови.Единственным человеком, который распознал монстра в пай-мальчике, стал его двоюродный брат Марк, приехавший в дом Эвансов погостить. Но это открытие стало для Марка роковым: садиста-братика совсем не устраивало, что кто-то может знать о его тайных развлечениях.И Генри приглашает Марка сыграть в одну из своих смертельных игр.



Качество: WEB-DLRip-AVC
Формат: MKV
Видео кодек: AVC
Аудио кодек: AC3
Видео: AVC, 1024x576 (16:9), 23.976 fps, 2 433 Kbps (0.172 bit/pixel)
Аудио#1: AC-3, 48.0 KHz, 2 ch, 192 Kbps, CBR (Russian-MVO)
Аудио#2: AC-3, 48.0 KHz, 2 ch, 192 Kbps, CBR (Russian-AVO.Юрий Живов)
Аудио#3: AC-3, 48.0 KHz, 2 ch, 192 Kbps, CBR (Russian-AVO.Леонид Володарский)
Аудио#4: AC-3, 48.0 KHz, 2 ch, 192 Kbps, CBR (Russian-AVO.Василий Горчаков)
Аудио #5: AC-3, 48.0 KHz, 2 ch, 192 Kbps, CBR (Russian-AVO.Вартан Дохалов)
Аудио #6: AC-3, 48.0 KHz, 2 ch, 192 Kbps, CBR (English)
x264 [info]: frame I:759 Avg QP:15.13 size: 81378 PSNR Mean Y:48.64 U:55.31 V:56.09 Avg:49.81 Global:49.28
x264 [info]: frame P:34343 Avg QP:17.59 size: 26437 PSNR Mean Y:46.53 U:54.08 V:54.75 Avg:47.78 Global:47.17
x264 [info]: frame B:89773 Avg QP:19.71 size: 6830 PSNR Mean Y:46.03 U:55.46 V:56.20 Avg:47.35 Global:46.44
x264 [info]: consecutive B-frames: 3.0% 6.1% 6.2% 70.4% 6.1% 4.5% 1.1% 0.8% 0.4% 0.2% 0.2% 0.2% 0.2% 0.4%
x264 [info]: ref P L0: 55.1% 11.5% 14.6% 5.2% 4.0% 3.2% 2.7% 1.8% 1.7% 0.2% 0.0%
x264 [info]: ref B L0: 84.8% 7.5% 3.1% 1.5% 1.2% 1.0% 0.7% 0.3%
x264 [info]: ref B L1: 96.5% 3.5%
Формат : Matroska
Версия формата : Version 4 / Version 2
Размер файла : 2,17 Гбайт
Продолжительность : 1 ч. 26 м.
Общий поток : 3586 Кбит/сек
Название фильма : The Good Son (1993) WEB-DLRip-AVC от R.G. PiratFilms
Дата кодирования : UTC 2014-03-08 05:49:06
Программа кодирования : mkvmerge v6.8.0 ('Theme for Great Cities') 32bit built on Mar 2 2014 21:27:07
Библиотека кодирования : libebml v1.3.0 + libmatroska v1.4.1

Видео
Идентификатор : 1
Формат : AVC
Формат/Информация : Advanced Video Codec
Профиль формата : High@L4.1
Параметр CABAC формата : Да
Параметр ReFrames формата : 9 кадров
Идентификатор кодека : V_MPEG4/ISO/AVC
Продолжительность : 1 ч. 26 м.
Битрейт : 2433 Кбит/сек
Ширина : 1024 пикселя
Высота : 576 пикселей
Соотношение сторон : 16:9
Режим частоты кадров : Постоянный
Частота кадров : 23,976 кадра/сек
Цветовое пространство : YUV
Субдискретизация насыщенности : 4:2:0
Битовая глубина : 8 бит
Тип развёртки : Прогрессивная
Бит/(Пиксели*Кадры) : 0.172
Размер потока : 1,43 Гбайт (66%)
Заголовок : Rip ot kep
Библиотека кодирования : x264 core 138 r2358 9e941d1
Настройки программы : cabac=1 / ref=9 / deblock=1:-3:-2 / analyse=0x3:0x133 /
me=umh / subme=9 / psy=1 / psy_rd=1.00:0.00 / mixed_ref=1 / me_range=32 / chroma_me=1 /
trellis=2 / 8x8dct=1 / cqm=0 / deadzone=21,11 / fast_pskip=0 / chroma_qp_offset=-2 /
threads=2 / lookahead_threads=1 / sliced_threads=0 / nr=0 / decimate=1 / interlaced=0 /
bluray_compat=0 / constrained_intra=0 / bframes=13 / b_pyramid=2 / b_adapt=2 / b_bias=0 /
direct=3 / weightb=1 / open_gop=0 / weightp=2 / keyint=240 / keyint_min=23 / scenecut=40 /
intra_refresh=0 / rc_lookahead=60 / rc=2pass / mbtree=1 / bitrate=2433 / ratetol=1.0 /
qcomp=0.60 / qpmin=10 / qpmax=51 / qpstep=4 / cplxblur=20.0 / qblur=0.5 / ip_ratio=1.40 / aq=1:1.00
Язык : English
Default : Да
Forced : Нет

Аудио #1
Идентификатор : 2
Формат : AC-3
Формат/Информация : Audio Coding 3
Расширение режима : CM (complete main)
Параметр Endianness формата : Big
Идентификатор кодека : A_AC3
Продолжительность : 1 ч. 26 м.
Вид битрейта : Постоянный
Битрейт : 192 Кбит/сек
Каналы : 2 канала
Расположение каналов : Front: L R
Частота : 48,0 КГц
Битовая глубина : 16 бит
Метод сжатия : С потерями
Размер потока : 119 Мбайт (5%)
Заголовок : MVO
Язык : Russian
Default : Нет
Forced : Нет

Аудио #2
Идентификатор : 3
Формат : AC-3
Формат/Информация : Audio Coding 3
Расширение режима : CM (complete main)
Параметр Endianness формата : Big
Идентификатор кодека : A_AC3
Продолжительность : 1 ч. 26 м.
Вид битрейта : Постоянный
Битрейт : 192 Кбит/сек
Каналы : 2 канала
Расположение каналов : Front: L R
Частота : 48,0 КГц
Битовая глубина : 16 бит
Метод сжатия : С потерями
Размер потока : 119 Мбайт (5%)
Заголовок : AVO.Юрий Живов
Язык : Russian
Default : Нет
Forced : Нет

Аудио #3
Идентификатор : 4
Формат : AC-3
Формат/Информация : Audio Coding 3
Расширение режима : CM (complete main)
Параметр Endianness формата : Big
Идентификатор кодека : A_AC3
Продолжительность : 1 ч. 26 м.
Вид битрейта : Постоянный
Битрейт : 192 Кбит/сек
Каналы : 2 канала
Расположение каналов : Front: L R
Частота : 48,0 КГц
Битовая глубина : 16 бит
Метод сжатия : С потерями
Размер потока : 119 Мбайт (5%)
Заголовок : AVO.Леонид Володарский
Язык : Russian
Default : Нет
Forced : Нет

Аудио #4
Идентификатор : 5
Формат : AC-3
Формат/Информация : Audio Coding 3
Расширение режима : CM (complete main)
Параметр Endianness формата : Big
Идентификатор кодека : A_AC3
Продолжительность : 1 ч. 26 м.
Вид битрейта : Постоянный
Битрейт : 192 Кбит/сек
Каналы : 2 канала
Расположение каналов : Front: L R
Частота : 48,0 КГц
Битовая глубина : 16 бит
Метод сжатия : С потерями
Размер потока : 119 Мбайт (5%)
Заголовок : AVO.Василий Горчаков
Язык : Russian
Default : Да
Forced : Нет

Аудио #5
Идентификатор : 6
Формат : AC-3
Формат/Информация : Audio Coding 3
Расширение режима : CM (complete main)
Параметр Endianness формата : Big
Идентификатор кодека : A_AC3
Продолжительность : 1 ч. 26 м.
Вид битрейта : Постоянный
Битрейт : 192 Кбит/сек
Каналы : 2 канала
Расположение каналов : Front: L R
Частота : 48,0 КГц
Битовая глубина : 16 бит
Метод сжатия : С потерями
Размер потока : 119 Мбайт (5%)
Заголовок : AVO.Вартан Дохалов
Язык : Russian
Default : Нет
Forced : Нет

Аудио #6
Идентификатор : 7
Формат : AC-3
Формат/Информация : Audio Coding 3
Расширение режима : CM (complete main)
Параметр Endianness формата : Big
Идентификатор кодека : A_AC3
Продолжительность : 1 ч. 26 м.
Вид битрейта : Постоянный
Битрейт : 192 Кбит/сек
Каналы : 2 канала
Расположение каналов : Front: L R
Частота : 48,0 КГц
Битовая глубина : 16 бит
Метод сжатия : С потерями
Размер потока : 119 Мбайт (5%)
Заголовок : Original
Язык : English
Default : Нет
Forced : Нет

Текст
Идентификатор : 8
Формат : UTF-8
Идентификатор кодека : S_TEXT/UTF8
Идентификатор кодека/Информация : UTF-8 Plain Text
Язык : English
Default : Нет
Forced : Нет

Сэмпл / Трейлер pb.wtf



Скачать Добрый сынок через торрент http://i2.imageban.ru/out/2014/03/09/7d16fbeb32161e717fc8db23bd21cef0.png Скачать фильм Добрый сынок через торрент бесплантно в хорошем качестве Описание: Генри Эванс — чудный и послушный мальчик. Генри обожает игры. В особенности милы его сердцу игры со смертельным исходом.Ни его ... 10 10 9
Info! Золотая раздача, скачанное не засчитывается.
Торрент: Зарегистрирован [2014-03-09 05:39] · скачан: 45 раз
Статус: √ проверено
Размер: 2.17 GB
Как cкачать? Как скачать Добрый сынок через торрент | qTorrent

28-11-2019 20:33  

Отключить всю рекламу на сайте

    Дорогой пользователь! Огромная просьба, поблагодарите релизера, оцените раздачу и оставьте свои комментарий, если Вы скачали Добрый сынок через торрент бесплатно! Внесите свою лепту в развитие PiratBit!
    Комментировать посты могут только пользователи прошедшие не сложную регистрацию
    Показать сообщения:    

    Добрый сынок через торрент
    Скачать бесплатно Добрый сынок
    Добрый сынок скачать торрент
    Добрый сынок смотреть онлайн
    Cкачать фильм Добрый сынок бесплатно
    Добрый сынок скачать торрент в хорошем качестве
    Добрый сынок смотреть онлайн бесплатно в хорошем качестве


    Вы не можете начинать темы
    Вы не можете отвечать на сообщения
    Вы не можете редактировать свои сообщения
    Вы не можете удалять свои сообщения
    Вы не можете голосовать в опросах
    Вы не можете прикреплять файлы к сообщениям
    Вы можете скачивать файлы