2 сезон

iTunes

MVO

1

2 сезон

iTunes

iTunes

1 сезон

RePack

30

Новинка

ВАЖНО

ИГРА 18+

pack

RePack

MK11
pack

Легкие деньги

RePack

jed

RePack

fifa19

RePack

RDR2

RePack

NEED FOR SPEED™ PAYBACK

4 сезон

9 сезон

Бесстыжие 9 сезон

Все сериалы

все сериалы на PB.wtf

RePack

FAR CRY 5

Anonymous, доброй ночи, мы не успеваем собрать деньги на оплату серверов за декабрь и январь, помогите нам пожалуйста в это трудное время. В качестве благодарности мы отключим Вам всю рекламу на сайте (укажите свой ник в строку Ваше имя)!

×
  
Magnet ссылка

Видеоподборка Joy / Joy - Hello [1986-2011 г., Eurodance, DVDRip] pb.wtf

Видеоподборка Joy через торрент pb.wtf

Размер: 1.37 GB | Добавлен: 6 лет 10 мес. назад | Торрент скачан:40 раз
Скачать  

09-03-2014 05:47 Видеоподборка Joy Скачать торрент  

Видеоподборка Joy
Год выпуска: 1986-2011
Страна: Австрия,Россия
Жанр: Eurodance
Продолжительность: 00:51:59
Перевод: Оригинал

В ролях: Joy: Фредди Яклитш (Freddy Jaklitsch; р. 22 января 1960), Манфред Теммель (Manfred Temmel; р. 25 февраля 1959) и Анди Швайтцер (Andy Schweitzer). В 1995 в состав группы вошел Йоханнес Гребль (Johannes Groebl; р. 30 января 1960).,

Описание: Joy — австрийская англоязычная европоп-группа. Образована в 1984 году. Наиболее известна своими синглами Touch By Touch и Hello.
01. Hello
02. Kisses Are The Doctor's Order
03. I'm in love
04. Touch By Touch
05. Japanese Girl
06. Valerie - live in Germany
07. Hello Live (Дискотека 80-х) 2002
08. Japanese Girl (Ретро FM)
09. Touch By Touch- live (Дискотека 80-х)
10. Valerie (Дискотека 80-х)
11. Touch By Touch (Audio Remastering)
12. Valerie (Ретро FM)
13. Touch By Touch (Version 2011)
Качество: DVDRip
Формат: AVI
Видео кодек: XviD
Аудио кодек: MPEG Audio
Видео: Xvid 720x544, 25.00fps, 3 566 Kbps
Аудио: MPEG Audio, 48000Hz, stereo, 192kbps
Релиз от: lug 30





General
Complete name : K:�8 03 2014joy_hello_.avi
Format : AVI
Format/Info : Audio Video Interleave
File size : 1.37 GiB
Duration : 51mn 58s
Overall bit rate : 3 766 Kbps
Writing application : VirtualDubMod 1.5.4.1 (build 2178/release)
Writing library : VirtualDubMod build 2178/release

Video
ID : 0
Format : MPEG-4 Visual
Format profile : Advanced Simple@L5
Format settings, BVOP : No
Format settings, QPel : No
Format settings, GMC : No warppoints
Format settings, Matrix : Custom
Codec ID : XVID
Codec ID/Hint : XviD
Duration : 51mn 58s
Bit rate : 3 566 Kbps
Width : 720 pixels
Height : 544 pixels
Display aspect ratio : 4:3
Frame rate : 25.000 fps
Color space : YUV
Chroma subsampling : 4:2:0
Bit depth : 8 bits
Scan type : Progressive
Compression mode : Lossy
Bits/(Pixel*Frame) : 0.364
Stream size : 1.29 GiB (95%)
Writing library : XviD 73

Audio
ID : 1
Format : MPEG Audio
Format version : Version 1
Format profile : Layer 2
Codec ID : 50
Duration : 51mn 58s
Bit rate mode : Constant
Bit rate : 192 Kbps
Channel(s) : 2 channels
Sampling rate : 48.0 KHz
Compression mode : Lossy
Stream size : 71.4 MiB (5%)
Alignment : Aligned on interleaves
Interleave, duration : 80 ms (2.00 video frames)
Interleave, preload duration : 504 ms

pb.wtf



Скачать Видеоподборка Joy через торрент https://pic.kartinco.top/images/6/un38q.jpg Скачать фильм Видеоподборка Joy через торрент бесплантно в хорошем качестве Описание: Joy — австрийская англоязычная европоп-группа. Образована в 1984 году. Наиболее известна своими синглами Touch By Touch и ... 10 10 4
Info! Золотая раздача, скачанное не засчитывается.
Торрент: Зарегистрирован [2014-03-09 05:47] · скачан: 40 раз
Статус: √ проверено
Размер: 1.37 GB
Как cкачать? Как скачать Видеоподборка Joy через торрент | UTorrent

28-11-2019 20:33  

Отключить всю рекламу на сайте

    Дорогой пользователь! Огромная просьба, поблагодарите релизера, оцените раздачу и оставьте свои комментарий, если Вы скачали Видеоподборка Joy через торрент бесплатно! Внесите свою лепту в развитие PiratBit!
    Комментировать посты могут только пользователи прошедшие не сложную регистрацию
    Показать сообщения:    

    Видеоподборка Joy через торрент
    Скачать бесплатно Видеоподборка Joy
    Видеоподборка Joy скачать торрент
    Видеоподборка Joy смотреть онлайн
    Cкачать фильм Видеоподборка Joy бесплатно
    Видеоподборка Joy скачать торрент в хорошем качестве
    Видеоподборка Joy смотреть онлайн бесплатно в хорошем качестве


    Вы не можете начинать темы
    Вы не можете отвечать на сообщения
    Вы не можете редактировать свои сообщения
    Вы не можете удалять свои сообщения
    Вы не можете голосовать в опросах
    Вы не можете прикреплять файлы к сообщениям
    Вы можете скачивать файлы