Присоединяйтесь к нам в Telegram!, здесь всегда актуальный адрес сайта, оперативная поддержка и многое другое!!

>

5.9

iTunes

7.4

iTunes

9.4

1 сезон

1

7.4

2 сезон

7.2

iTunes

7.3

1 сезон

13

6.1

iTunes

8.3

GOG

30

ULTIMATE

pack

9.9

Лицензия

ВАЖНО

ИГРА 18+

pack

7.3

RePack

MK11

7.7

RePack

jed

7.8

RePack

fifa19

8.5

RePack

RDR2

RePack

NEED FOR SPEED™ PAYBACK

5 сезон

9 сезон

Бесстыжие 9 сезон

Все сериалы

все сериалы на PB.wtf

RePack

FAR CRY 5

Anonymous, добрый вечер, мы катастрофически не успеваем собрать деньги на оплату серверов, помогите нам пожалуйста 5,10,15р., для нас важна любая помощь . В качестве благодарности мы отключим Вам всю рекламу на сайте (укажите свой ник в строку Ваше имя)!

×
  
Magnet ссылка

ВИА - от А до Я (1971-1987) [2013 г., Фильм-концерт, SATRip] pb.wtf

ВИА - от А до Я через торрент pb.wtf

Размер: 12.78 GB | Добавлен: 7 лет 8 мес. назад | Торрент скачан:73 раза
Смотреть онлайн ВИА - от А до Я | Скачать    Ребята, помогите собрать деньги на оплату серверов!!!

09-03-2014 09:22 ВИА - от А до Я Скачать торрент  

ВИА - от А до Я
Год выпуска: 2013
Страна: СССР
Жанр: Фильм-концерт
Продолжительность: 23 х ~ 00:25:00, 3 х ~ 01:10:27
Перевод: Оригинал

В ролях: Апельсин, Ариэль, Верасы, Веселые ребята, Песняры, Пламя, Поющие гитары и другие....

Описание: Подборка фильмов-концертов с участием вокально-инструментальных ансамблей Советского Союза.
01. ВИА - история создания и становления
Video: DivX 5, 704x528, 29.97fps, 1 914 Kbps
Audio: MPEG Audio Layer 3, 44100Hz, stereo, 192kbps

02. Аккорд
DivX 5, 704x528, 29.97fps, 1 999 Kbps
MPEG Audio Layer 3, 44100Hz, stereo, 192kbps

03. Апельсин
DivX 5, 704x560, 29.97fps, 2 000 Kbps
MPEG Audio Layer 3, 44100Hz, stereo, 192kbps

04. Ариэль
DivX 5, 704x544, 29.97fps, 2 000 Kbps
MPEG Audio Layer 3, 44100Hz, stereo, 192kbps

05. Ватра
DivX 5, 704x528, 29.97fps, 1 998 Kbps
MPEG Audio Layer 3, 44100Hz, stereo, 192kbps

06. Верасы
DivX 5, 704x528, 29.97fps, 2 000 Kbps
MPEG Audio Layer 3, 44100Hz, stereo, 192kbps

07. Веселые ребята
DivX 5, 704x528, 29.97fps, 2 001 Kbps
MPEG Audio Layer 3, 44100Hz, stereo, 191kbps

08. Здравствуй,песня


09. Кобза
Xvid, 704x528 (176:135), 25.00fps, 2 138 Kbps
MPEG Audio Layer 3, 44100Hz, stereo, 128kbps

10. Контемпоранул

11. Лейся песня
DivX 5, 704x528, 29.97fps, 1 997 Kbps
MPEG Audio Layer 3, 44100Hz, stereo, 192kbps

12. Мзиури
DivX 5, 704x528, 29.97fps, 2 499 Kbps
MPEG Audio Layer 3, 44100Hz, stereo, 192kbps

13. Мрия
Xvid, 608x480, 25.00fps, 1 195 Kbps
MPEG Audio Layer 3, 44100Hz, stereo, 192kbps

14. Орэра
DivX 5, 704x528, 29.97fps, 2 000 Kbps
MPEG Audio Layer 3, 44100Hz, stereo, 192kbps

15. Оризонт
DivX 5, 704x528, 29.97fps, 2 000 Kbps
MPEG Audio Layer 3, 44100Hz, stereo, 192kbps

16. Песняры 1
DivX 5, 704x544, 29.97fps, 1 998 Kbps
MPEG Audio Layer 3, 44100Hz, stereo, 192kbps

17. Песняры 2
DivX 5, 704x528, 29.97fps, 1 994 Kbps
MPEG Audio Layer 3, 44100Hz, stereo, 192kbps

18. Пламя
DivX 5, 704x528, 29.97fps, 2 000 Kbps
MPEG Audio Layer 3, 44100Hz, stereo, 192kbps

19. Поющие гитары
DivX 5, 704x528, 29.97fps, 29.970 fps
MPEG Audio Layer 3, 44100Hz, stereo, 192kbps

20. Поющие сердца
DivX 5, 704x544, 29.97fps, 2 000 Kbps
MPEG Audio Layer 3, 44100Hz, stereo, 191kbps

21. Самоцветы
DivX 5, 704x528, 29.97fps, 2 000 Kbps
MPEG Audio Layer 3, 44100Hz, stereo, 192kbps

22. Синяя птица
DivX 5, 704x544, 29.97fps, 1 951 Kbps
MPEG Audio Layer 3, 44100Hz, stereo, 192kbps

23. Смеричка
DivX 5, 704x528, 29.97fps, 2 000 Kbps
MPEG Audio Layer 3, 44100Hz, stereo, 192kbps

24. Сябры
DivX 5, 704x528, 29.97fps, 2 000 Kbps
MPEG Audio Layer 3, 44100Hz, stereo, 192kbps

25. Цветы
Xvid, 608x480, 29.97fps, 1 536 Kbps
MPEG Audio Layer 3, 44100Hz, stereo, 192kbps

26. Ялла
Xvid, 608x480, 25.00fps, 1 876 Kbps
MPEG Audio Layer 3, 44100Hz, stereo, 192kbps
Качество: SATRip
Формат: AVI
Видео кодек: DivX
Аудио кодек: MP3
Видео: DivX 5, 704x528, 29.97fps, 2 001 Kbps
Аудио: MPEG Audio Layer 3, 44100Hz, stereo, 191kbps
Релиз от: Cоблазн





General
Complete name : D:20 02 2014ВИА от А до ЯВИА от А до ЯВеселые ребята.avi
Format : AVI
Format/Info : Audio Video Interleave
File size : 728 MiB
Duration : 46mn 10s
Overall bit rate : 2 204 Kbps
Writing application : VirtualDubModRus 1.5.10.2 (build 2542/release)
Writing library : Boilsoft AVI tool build 30012/release

Video
ID : 0
Format : MPEG-4 Visual
Format profile : Simple@L1
Format settings, BVOP : No
Format settings, QPel : No
Format settings, GMC : No warppoints
Format settings, Matrix : Default (H.263)
Codec ID : DX50
Codec ID/Hint : DivX 5
Duration : 46mn 10s
Bit rate : 2 001 Kbps
Width : 704 pixels
Height : 528 pixels
Display aspect ratio : 4:3
Frame rate : 29.970 fps
Color space : YUV
Chroma subsampling : 4:2:0
Bit depth : 8 bits
Scan type : Progressive
Compression mode : Lossy
Bits/(Pixel*Frame) : 0.180
Stream size : 661 MiB (91%)

Audio
ID : 1
Format : MPEG Audio
Codec ID : 55
Codec ID/Hint : MP3
Duration : 46mn 10s
Bit rate : 192 Kbps
Channel(s) : 2 channels
Sampling rate : 44.1 KHz
Compression mode : Lossy
Stream size : 63.3 MiB (9%)
Alignment : Split accross interleaves
Interleave, duration : 33 ms (1.00 video frame)
Interleave, preload duration : 522 ms

pb.wtf



Скачать ВИА - от А до Я через торрент https://pic1.kartinco.top/images/61/klcjm.jpg Скачать, смотреть онлайн ВИА - от А до Я бесплантно в хорошем качестве Описание: Подборка фильмов-концертов с участием вокально-инструментальных ансамблей Советского Союза. ВИА - история создания и ... 10 10 7
Info! Золотая раздача, скачанное не засчитывается.
Торрент: Зарегистрирован [2014-03-09 09:22] · скачан: 73 раз
Статус: √ проверено
Размер: 12.78 GB
Как cкачать? Как скачать ВИА - от А до Я через торрент | UTorrent

28-11-2019 20:33  

Отключить всю рекламу на сайте

    Дорогой пользователь! Огромная просьба, поблагодарите релизера, оцените раздачу и оставьте свои комментарий, если Вы скачали ВИА - от А до Я через торрент бесплатно!
    Комментировать посты могут только пользователи прошедшие не сложную регистрацию
    Показать сообщения:    

    ВИА - от А до Я через торрент
    Скачать бесплатно ВИА - от А до Я
    ВИА - от А до Я скачать торрент
    ВИА - от А до Я смотреть онлайн
    Cкачать фильм ВИА - от А до Я бесплатно
    ВИА - от А до Я скачать торрент в хорошем качестве
    ВИА - от А до Я смотреть онлайн бесплатно в хорошем качестве


    Вы не можете начинать темы
    Вы не можете отвечать на сообщения
    Вы не можете редактировать свои сообщения
    Вы не можете удалять свои сообщения
    Вы не можете голосовать в опросах
    Вы не можете прикреплять файлы к сообщениям
    Вы можете скачивать файлы