2 сезон

iTunes

MVO

1

2 сезон

iTunes

iTunes

1 сезон

RePack

30

Новинка

ВАЖНО

ИГРА 18+

pack

RePack

MK11
pack

Легкие деньги

RePack

jed

RePack

fifa19

RePack

RDR2

RePack

NEED FOR SPEED™ PAYBACK

4 сезон

9 сезон

Бесстыжие 9 сезон

Все сериалы

все сериалы на PB.wtf

RePack

FAR CRY 5

Anonymous, добрый день, мы не успеваем собрать деньги на оплату серверов за декабрь и январь, помогите нам пожалуйста в это трудное время. В качестве благодарности мы отключим Вам всю рекламу на сайте (укажите свой ник в строку Ваше имя)!

×
  
Magnet ссылка

Мошенничество / Swindle (Джонатан Джадж / Jonathan Judge) [2013, США, Канада, комедия, приключения, WEB-DLRip]DUB pb.wtf

Мошенничество через торрент pb.wtf

Размер: 748 MB | Добавлен: 6 лет 10 мес. назад | Торрент скачан:263 раза
Скачать  

09-03-2014 10:40 Мошенничество Скачать торрент  

Мошенничество / Swindle
Год выпуска: 2013
Страна: США, Канада
Жанр: комедия, приключения
Продолжительность: 01:31:55
Перевод: Профессиональный (полное дублирование)[Канал Disney]
Субтитры: Нет

Режиссер: Джонатан Джадж / Jonathan Judge
Сценарий: Эрик Фрисер / Eric Freiser, Билл Моц / Bill Motz, Боб Рот / Bob Roth
Продюсер: Paul Barry, Марджори Кон / Marjorie Cohn, Карен Гласс / Karen Glass, Лорис Крамер / Loris Kramer Lunsford, Лорен Ливайн / Lauren Levine
Оператор: Том Хартинг / Tom Harting
Композитор: Джон Ван Тонгерен / John Van Tongeren

Дженнет МакКарди (Savannah Westcott), Ной Кроуфорд (Griffin Bing), Крис О’Нил (Ben Dupree), Сиэра Браво (Melissa Bing), Фред Эвануик (Paul Swindell), Сэнди Робсон (Anton Leferve), Ариана Гранде (Amanda Benson), Ной Манк (Darren Vader), Фейн Тсе (Wedding Band Drummer), Маттео Стефан (Doug), Шон Эмсинг (Band Member #1), Фэрра Авива (Bride)

Бюджет: $5 000 000

Мировая премьера: 24 августа 2013

Описание:Бен и Гриффин находят старую бейсбольную карточку Хонуса Вагнера и решают продать её, чтобы Бену не пришлось выселяться из своего дома. Они отправляются в магазин для коллекционеров, которым владеет парень по имени Мошеннилл. После долгих торгов хозяин магазина соглашается заплатить ребятам за карточку 300 долларов. Гордясь собой, ребята отправляются домой, но позже они узнают, что эта карточка стоит намного больше - на целых 1,2 миллиона. Гриффина и Бена обманули. Теперь Гриффин Бинг хочет обмануть самого мошенника и вернуть себе карточку, которой тот завладел столь нечестным образом. Всеобщий любимец, он собирает команду, чтобы провернуть свою затею...

Рейтинг
kinopoisk.ru: 5.429 (124)
imdb.com: 6.80 (612)

Качество: WEB-DLRip
Формат: AVI
Видео кодек: XviD
Аудио кодек: MP3
Видео: 1001 Кбит/сек, 720*400 (16:9), в 23,976 кадра/сек, MPEG-4 Visual (XviD)
Аудио: 128 Кбит/сек, 48,0 КГц, 2 канала, MPEG Audio (MP3 )

Общее
Кол-во : 284
Кол-во потоков такого типа : 1
Тип потока : General
Тип потока : Общее
Идентификатор типа потока : 0
Inform : AVI: 748 Мбайт, 1 ч. 31 м.
Кол-во видеопотоков : 1
Кол-во аудиопотоков : 1
Video_Format_List : MPEG-4 Visual
Video_Format_WithHint_List : MPEG-4 Visual (XviD)
Видеокодеки : XviD
Audio_Format_List : MPEG Audio
Audio_Format_WithHint_List : MPEG Audio (MP3 )
Аудиокодеки : MPEG-1 Audio layer 3
Полное имя : H:ТОРРЕНТЫМошенничество.avi
Имя папки : H:ТОРРЕНТЫ
Имя файла : Мошенничество
Расширение : avi
Формат : AVI
Формат : AVI
Формат/Информация : Audio Video Interleave
Формат/Используется в : avi
Коммерческое название : AVI
Интернет-тип носителя : video/vnd.avi
Чередующаяся : Yes
Кодек : AVI
Кодек : AVI
Кодек/Информация : Audio Video Interleave
Кодек/Используется в : avi
Размер файла : 784621568
Размер файла : 748 Мбайт
Размер файла : 748 Мбайт
Размер файла : 748 Мбайт
Размер файла : 748 Мбайт
Размер файла : 748,3 Мбайт
Продолжительность : 5515176
Продолжительность : 1 ч. 31 м.
Продолжительность : 1 ч. 31 м. 55 с. 176 мс.
Продолжительность : 1 ч. 31 м.
Продолжительность : 01:31:55.176
Общий поток : 1138127
Общий поток : 1138 Кбит/сек
Размер потока : 6424005
Размер потока : 6,13 Мбайт (1%)
Размер потока : 6 Мбайт
Размер потока : 6,1 Мбайт
Размер потока : 6,13 Мбайт
Размер потока : 6,126 Мбайт
Размер потока : 6,13 Мбайт (1%)
Пропорции потока : 0.00819
Заголовок : Swindle.2013.WEB-DLRip.Deadmauvlad.D.Disney
Название фильма : Swindle.2013.WEB-DLRip.Deadmauvlad.D.Disney
Режиссёр : Deadmauvlad
Жанр : Подростковое кино
Дата файла : UTC 2014-03-09 09:53:44.539
Дата файла (местная) : 2014-03-09 16:53:44.539
Дата изменения файла : UTC 2014-03-09 09:58:52.570
Дата изменения файла (местная) : 2014-03-09 16:58:52.570
Программа кодирования : VirtualDubMod 1.5.10.3 | www.virtualdub-fr.org || (build 2550/release)
Формат оригинала/Имя : Фильм

Видео
Кол-во : 271
Кол-во потоков такого типа : 1
Тип потока : Video
Тип потока : Видео
Идентификатор типа потока : 0
StreamOrder : 0
Inform : 1001 Кбит/сек, 720*400 (16:9), в 23,976 кадра/сек, MPEG-4 Visual (XviD) (Advanced Simple@L5) (BVOP1 / Custom Matrix)
Идентификатор : 0
Идентификатор : 0
Формат : MPEG-4 Visual
Коммерческое название : MPEG-4 Visual
Профиль формата : Advanced Simple@L5
Настройки формата : BVOP1 / Custom Matrix
Параметр BVOP формата : 1
Параметр BVOP формата : 1
Параметр QPel формата : No
Параметр QPel формата : Нет
Параметр GMC формата : 0
Параметр GMC формата : Без точки перехода
Параметр матрицы формата : Custom
Параметр матрицы формата : Выборочная
Format_Settings_Matrix_Data : 080E0E0E0E0E0E0E0E0E0F0E0F0E0F0F0F0F0F0F0F1210111211101215131315151313151616171A171616191B1E1E1B191F2326231F282E2E28383D384C4C63 / 131313131313131313131413141314151415151415181617181716181C1A1A1C1C1A1A1C1D1D1F231F1D1D2224292924222A3033302A373F3F374C534C676786
Интернет-тип носителя : video/MP4V-ES
Идентификатор кодека : XVID
Идентификатор кодека/Подсказка : XviD
Идентификатор кодека/Ссылка : http://mediaarea.net/XVID
Кодек : XVID
Кодек : XviD
Кодек/Семейство : MPEG-4V
Кодек/Информация : XviD project
Кодек/Ссылка : http://www.xvid.org/Downloads.15.0.html
Кодек/CC : XVID
Профиль кодека : Advanced Simple@L5
Настройки кодека : BVOP / Custom Matrix
Параметр пакетного потока данных кодека : No
Параметр BVOP кодека : Yes
Параметр QPel кодека : No
Параметр GMC кодека : 0
Параметр GMC кодека : Без точки перехода
Параметр матрицы кодека : Custom
Продолжительность : 5515176
Продолжительность : 1 ч. 31 м.
Продолжительность : 1 ч. 31 м. 55 с. 176 мс.
Продолжительность : 1 ч. 31 м.
Продолжительность : 01:31:55.176
Битрейт : 1000808
Битрейт : 1001 Кбит/сек
Ширина : 720
Ширина : 720 пикселей
Высота : 400
Высота : 400 пикселей
Пропорции пикселя : 1.000
Соотношение сторон : 1.800
Соотношение сторон : 16:9
Частота кадров : 23.976
Частота кадров : 23,976 кадра/сек
Счётчик кадров : 132232
Разрешение : 8
Разрешение : 8 бит
Колориметрия : 4:2:0
Цветовое пространство : YUV
Субдискретизация насыщенности : 4:2:0
Битовая глубина : 8
Битовая глубина : 8 бит
Тип развёртки : Progressive
Тип развёртки : Прогрессивная
Переплетение : PPF
Переплетение : Прогрессивная
Метод сжатия : Lossy
Метод сжатия : С потерями
Бит/(Пиксели*Кадры) : 0.145
Задержка : 0
Задержка : 00:00:00.000
Размер потока : 689954747
Размер потока : 658 Мбайт (88%)
Размер потока : 658 Мбайт
Размер потока : 658 Мбайт
Размер потока : 658 Мбайт
Размер потока : 658,0 Мбайт
Размер потока : 658 Мбайт (88%)
Пропорции потока : 0.87935
Библиотека кодирования : XviD0073C
Библиотека кодирования : XviD 73
Библиотека кодирования/Имя : XviD
Библиотека кодирования/Version : 73

Аудио
Кол-во : 222
Кол-во потоков такого типа : 1
Тип потока : Audio
Тип потока : Аудио
Идентификатор типа потока : 0
StreamOrder : 1
Inform : 128 Кбит/сек, 48,0 КГц, 2 канала, MPEG Audio (MP3 ) (Version 1) (Layer 3) (Joint stereo / MS Stereo)
Идентификатор : 1
Идентификатор : 1
Формат : MPEG Audio
Коммерческое название : MPEG Audio
Версия формата : Version 1
Профиль формата : Layer 3
Настройки формата : Joint stereo / MS Stereo
Режим : Joint stereo
Расширение режима : MS Stereo
Интернет-тип носителя : audio/mpeg
Идентификатор кодека : 55
Идентификатор кодека/Подсказка : MP3
Идентификатор кодека/Ссылка : http://www.iis.fraunhofer.de/amm/index.html
Кодек : MPA1L3
Кодек : MPEG-1 Audio layer 3
Кодек/Семейство : MPEG-1
Кодек/Информация : MPEG-1 or 2 layer 3
Кодек/Ссылка : http://www.iis.fraunhofer.de/amm/index.html
Кодек/CC : 55
Профиль кодека : Joint stereo
Продолжительность : 5515176
Продолжительность : 1 ч. 31 м.
Продолжительность : 1 ч. 31 м. 55 с. 176 мс.
Продолжительность : 1 ч. 31 м.
Продолжительность : 01:31:55.176
Вид битрейта : CBR
Вид битрейта : Постоянный
Битрейт : 128000
Битрейт : 128 Кбит/сек
Каналы : 2
Каналы : 2 канала
Частота : 48000
Частота : 48,0 КГц
Количество образцов : 264730752
Счётчик кадров : 229801
Метод сжатия : Lossy
Метод сжатия : С потерями
Задержка : 0
Задержка : 00:00:00.000
Задержка в оригинале : Stream
Задержка в оригинале : 'Сырой' поток
Задержка видео : 0
Задержка видео : 0
Размер потока : 88242816
Размер потока : 84,2 Мбайт (11%)
Размер потока : 84 Мбайт
Размер потока : 84 Мбайт
Размер потока : 84,2 Мбайт
Размер потока : 84,15 Мбайт
Размер потока : 84,2 Мбайт (11%)
Пропорции потока : 0.11247
Выравнивание : Aligned
Выравнивание : Соединение по промежуткам
Продолжительность промежутка : 1.00
Продолжительность промежутка : 42
Продолжительность промежутка : 42 мс. (1,00 видеокадр)
Время предзагрузки промежутка : 504
Время предзагрузки промежутка : 504 мс.
Библиотека кодирования : LAME3.99r
Библиотека кодирования : LAME3.99r
Настройки программы : -m j -V 4 -q 2 -lowpass 17 -b 128





pb.wtf



Скачать Мошенничество через торрент http://pic.kartinco.top/images/6/yr2xg.jpg Скачать фильм Мошенничество через торрент бесплантно в хорошем качестве Описание:Бен и Гриффин находят старую бейсбольную карточку Хонуса Вагнера и решают продать её, чтобы Бену не пришлось выселяться из своего ... 9.1 10 12
Торрент: Зарегистрирован [2014-03-09 10:40] · скачан: 263 раз
Статус: √ проверено
Размер: 748 MB
Как cкачать? Как скачать Мошенничество через торрент | UTorrent

28-11-2019 20:33  

Отключить всю рекламу на сайте

    Дорогой пользователь! Огромная просьба, поблагодарите релизера, оцените раздачу и оставьте свои комментарий, если Вы скачали Мошенничество через торрент бесплатно! Внесите свою лепту в развитие PiratBit!
    Комментировать посты могут только пользователи прошедшие не сложную регистрацию
    Показать сообщения:    

    Мошенничество через торрент
    Скачать бесплатно Мошенничество
    Мошенничество скачать торрент
    Мошенничество смотреть онлайн
    Cкачать фильм Мошенничество бесплатно
    Мошенничество скачать торрент в хорошем качестве
    Мошенничество смотреть онлайн бесплатно в хорошем качестве


    Вы не можете начинать темы
    Вы не можете отвечать на сообщения
    Вы не можете редактировать свои сообщения
    Вы не можете удалять свои сообщения
    Вы не можете голосовать в опросах
    Вы не можете прикреплять файлы к сообщениям
    Вы можете скачивать файлы