Ссылка на приватное зеркало нашего сайта всего за 1$. Внимание количество ограничено!!!

2 сезон

iTunes

1 сезон

1

2 сезон

2 сезон

iTunes

1 сезон

RePack

30

Новинка

ВАЖНО

ИГРА 18+

pack

RePack

MK11
pack

Забери бонус

RePack

jed

!!Акция!!

Alien_Rage

RePack

fifa19

RePack

Assassins Creed: Odyssey

RePack

NEED FOR SPEED™ PAYBACK

4 сезон

9 сезон

Бесстыжие 9 сезон

Все сериалы

все сериалы на PB.wtf

RePack

FAR CRY 5
  

Сицилийский клан / Le clan des Siciliens (Анри Вернёй) [1969, Драма, Криминал, BD Remux] от R.G. PiratFilms pb.wtf

Сицилийский клан через торрент pb.wtf

Размер: 32.23 GB | Добавлен: 6 лет 8 мес. назад | Торрент скачан:5 раз
Скачать  

09-03-2014 10:45 Сицилийский клан Скачать торрент  

Сицилийский клан / Le clan des Siciliens
«The murders in Paris! The robbery in Rome! The double-cross in New York!»


Информация о фильме

Год выпуска: 1969
Страна: Франция
Жанр: Драма,Криминал
Продолжительность: 01:58:23|02:04:46
Перевод: Многоголосый закадровый|Одноголосый закадровый
Режиссер: Анри Вернёй
В ролях: Жан Габен, Ален Делон, Лино Вентура, Ирина Демик, Амедео Надзари, Филипп Баронне, Карен Блангернон, Ив Брэнвиль, Жерар Бур, Элиза Чегани, Рауль Дэлфоз, Жак Дуби


Описание фильма:

Молодой гангстер Роже Сарте совершает побег из фургона, перевозящего его в тюрьму из Дворца Правосудия. Все проходит удачно благодаря помощи главы сицилийского клана Витторио Маналезе. Роже нужен ему для участия в дерзком ограблении. Клан намерен совершить кражу уникальной коллекции драгоценностей, собранной в Риме для международной выставки.
К операции готовятся долго и тщательно. Поскольку выставка будет проходить в Нью-Йорке, американский друг Витторио Тони Никозиа предлагает привести план в исполнение во время полета и захватить добычу.


Информация о файле:

Качество: BD Remux | Исходник: Blu-ray 1080p AVC DTS-HD 1.0 | Сингронизация звука и видео: XLASER
Формат: MKV
Видео кодек: AVC
Аудио кодек: AC3|DTS-HD
АНГЛИЙСКАЯ ВЕРСИЯ
Видео: 1920x1080 (16:9), 16822 Кбит/сек, 23,976 fps
Аудио №1: AC3, 192 Кбит/сек, 2 каналов, 48 КГц |Многоголосый закадровый, DVD Магия|
Аудио №2: DTS-HD, 799 Кбит/сек, 1 каналов, 48 КГц |Оригинал Английский|
Субтитры №1: |S_HDMV / PGS|, Французкие
Субтитры №2: |S_HDMV / PGS|, Английские
ФРАНЦУЗСКАЯ ВЕРСИЯ
Видео: 1920x1080 (16:9), 16843 Кбит/сек, 23,976 fps
Аудио №1: DTS-HD, 895 Кбит/сек, 1 каналов, 48 КГц |Многоголосый закадровый, Film Prestige|
Аудио №2: DTS-HD, 799 Кбит/сек, 1 каналов, 48 КГц |Одноголосый закадровый, Р.Янкелевич|
Аудио №3: DTS-HD, 799 Кбит/сек, 1 каналов, 48 КГц |Оригинал Французкий|
Субтитры №1: S_HDMV/PGS, Русские
Субтитры №2: S_HDMV/PGS, Английские




Код:

Формат                                   : Matroska
Версия формата                           : Version 4 / Version 2
Размер файла                             : 15,0 Гбайт
Продолжительность                        : 1 ч. 58 м.
Режим общего битрейта                    : Переменный
Общий поток                              : 18,2 Мбит/сек
Дата кодирования                         : UTC 2014-03-09 07:23:45
Программа кодирования                    : mkvmerge v6.8.0 ('Theme for Great Cities') 32bit built on Mar  2 2014 21:27:07
Библиотека кодирования                   : libebml v1.3.0 + libmatroska v1.4.1

Видео
Идентификатор                            : 1
Формат                                   : AVC
Формат/Информация                        : Advanced Video Codec
Профиль формата                          : High@L4.1
Параметр CABAC формата                   : Да
Параметр ReFrames формата                : 4 кадра
Идентификатор кодека                     : V_MPEG4/ISO/AVC
Продолжительность                        : 1 ч. 58 м.
Вид битрейта                             : Переменный
Битрейт                                  : 16,8 Мбит/сек
Максимальный битрейт                     : 38,0 Мбит/сек
Ширина                                   : 1920 пикселей
Высота                                   : 1080 пикселей
Соотношение сторон                       : 16:9
Режим частоты кадров                     : Постоянный
Частота кадров                           : 23,976 кадра/сек
Цветовое пространство                    : YUV
Субдискретизация насыщенности            : 4:2:0
Битовая глубина                          : 8 бит
Тип развёртки                            : Прогрессивная
Бит/(Пиксели*Кадры)                      : 0.338
Размер потока                            : 13,9 Гбайт (93%)
Default                                  : Да
Forced                                   : Нет

Аудио #1
Идентификатор                            : 2
Формат                                   : AC-3
Формат/Информация                        : Audio Coding 3
Расширение режима                        : CM (complete main)
Параметр Endianness формата              : Big
Идентификатор кодека                     : A_AC3
Продолжительность                        : 1 ч. 58 м.
Вид битрейта                             : Постоянный
Битрейт                                  : 192 Кбит/сек
Каналы                                   : 2 канала
Расположение каналов                     : Front: L R
Частота                                  : 48,0 КГц
Битовая глубина                          : 16 бит
Метод сжатия                             : С потерями
Размер потока                            : 163 Мбайт (1%)
Язык                                     : Russian
Default                                  : Да
Forced                                   : Нет

Аудио #2
Идентификатор                            : 3
Формат                                   : DTS
Формат/Информация                        : Digital Theater Systems
Профиль формата                          : MA / Core
Идентификатор кодека                     : A_DTS
Продолжительность                        : 1 ч. 58 м.
Вид битрейта                             : Переменный
Битрейт                                  : 800 Кбит/сек / 755 Кбит/сек
Каналы                                   : 1 канал
Расположение каналов                     : Front: C
Частота                                  : 48,0 КГц
Битовая глубина                          : 24 бит
Метод сжатия                             : Без потерь / Lossy
Язык                                     : English
Default                                  : Нет
Forced                                   : Нет

Текст #1
Идентификатор                            : 4
Формат                                   : PGS
Режим смешивания                         : zlib
Идентификатор кодека                     : S_HDMV/PGS
Идентификатор кодека/Информация          : The same subtitle format used on BDs/HD-DVDs
Язык                                     : French
Default                                  : Да
Forced                                   : Нет

Текст #2
Идентификатор                            : 5
Формат                                   : PGS
Режим смешивания                         : zlib
Идентификатор кодека                     : S_HDMV/PGS
Идентификатор кодека/Информация          : The same subtitle format used on BDs/HD-DVDs
Язык                                     : English
Default                                  : Нет
Forced                                   : Нет



Код:

Формат                                   : Matroska
Версия формата                           : Version 4 / Version 2
Размер файла                             : 17,2 Гбайт
Продолжительность                        : 2 ч. 4 м.
Режим общего битрейта                    : Переменный
Общий поток                              : 19,7 Мбит/сек
Дата кодирования                         : UTC 2014-03-09 07:13:53
Программа кодирования                    : mkvmerge v6.8.0 ('Theme for Great Cities') 32bit built on Mar  2 2014 21:27:07
Библиотека кодирования                   : libebml v1.3.0 + libmatroska v1.4.1

Видео
Идентификатор                            : 1
Формат                                   : AVC
Формат/Информация                        : Advanced Video Codec
Профиль формата                          : High@L4.1
Параметр CABAC формата                   : Да
Параметр ReFrames формата                : 4 кадра
Идентификатор кодека                     : V_MPEG4/ISO/AVC
Продолжительность                        : 2 ч. 4 м.
Вид битрейта                             : Переменный
Битрейт                                  : 16,8 Мбит/сек
Максимальный битрейт                     : 39,0 Мбит/сек
Ширина                                   : 1920 пикселей
Высота                                   : 1080 пикселей
Соотношение сторон                       : 16:9
Режим частоты кадров                     : Постоянный
Частота кадров                           : 23,976 кадра/сек
Цветовое пространство                    : YUV
Субдискретизация насыщенности            : 4:2:0
Битовая глубина                          : 8 бит
Тип развёртки                            : Прогрессивная
Бит/(Пиксели*Кадры)                      : 0.339
Размер потока                            : 14,7 Гбайт (85%)
Default                                  : Да
Forced                                   : Нет

Аудио #1
Идентификатор                            : 2
Формат                                   : DTS
Формат/Информация                        : Digital Theater Systems
Профиль формата                          : MA / Core
Идентификатор кодека                     : A_DTS
Продолжительность                        : 2 ч. 4 м.
Вид битрейта                             : Переменный
Битрейт                                  : 896 Кбит/сек / 755 Кбит/сек
Каналы                                   : 1 канал
Расположение каналов                     : Front: C
Частота                                  : 48,0 КГц
Битовая глубина                          : 24 бит
Метод сжатия                             : Без потерь / Lossy
Язык                                     : Russian
Default                                  : Да
Forced                                   : Нет

Аудио #2
Идентификатор                            : 3
Формат                                   : DTS
Формат/Информация                        : Digital Theater Systems
Профиль формата                          : MA / Core
Идентификатор кодека                     : A_DTS
Продолжительность                        : 2 ч. 4 м.
Вид битрейта                             : Переменный
Битрейт                                  : 800 Кбит/сек / 755 Кбит/сек
Каналы                                   : 1 канал
Расположение каналов                     : Front: C
Частота                                  : 48,0 КГц
Битовая глубина                          : 24 бит
Метод сжатия                             : Без потерь / Lossy
Язык                                     : Russian
Default                                  : Нет
Forced                                   : Нет

Аудио #3
Идентификатор                            : 4
Формат                                   : DTS
Формат/Информация                        : Digital Theater Systems
Профиль формата                          : MA / Core
Идентификатор кодека                     : A_DTS
Продолжительность                        : 2 ч. 4 м.
Вид битрейта                             : Переменный
Битрейт                                  : 800 Кбит/сек / 755 Кбит/сек
Каналы                                   : 1 канал
Расположение каналов                     : Front: C
Частота                                  : 48,0 КГц
Битовая глубина                          : 24 бит
Метод сжатия                             : Без потерь / Lossy
Язык                                     : French
Default                                  : Нет
Forced                                   : Нет

Текст #1
Идентификатор                            : 5
Формат                                   : PGS
Режим смешивания                         : zlib
Идентификатор кодека                     : S_HDMV/PGS
Идентификатор кодека/Информация          : The same subtitle format used on BDs/HD-DVDs
Язык                                     : Russian
Default                                  : Да
Forced                                   : Нет

Текст #2
Идентификатор                            : 6
Формат                                   : PGS
Режим смешивания                         : zlib
Идентификатор кодека                     : S_HDMV/PGS
Идентификатор кодека/Информация          : The same subtitle format used on BDs/HD-DVDs
Язык                                     : English
Default                                  : Нет
Forced                                   : Нет



скриншот   скриншот   скриншот   скриншот   скриншот  


скриншот   скриншот   скриншот   скриншот   скриншот  
pb.wtf



Скачать Сицилийский клан через торрент http://pic.kartinco.top/images/6/iqxaj.jpg Скачать фильм Сицилийский клан через торрент бесплантно в хорошем качестве Описание фильма: Молодой гангстер Роже Сарте совершает побег из фургона, перевозящего его в тюрьму из Дворца Правосудия. Все проходит ... 10 10 5
Info! Золотая раздача, скачанное не засчитывается.
Торрент: Зарегистрирован [2014-03-09 10:45] · скачан: 5 раз
Статус: √ проверено
Размер: 32.23 GB
Как cкачать? Как скачать Сицилийский клан через торрент | qTorrent

28-11-2019 20:33  

Отключить всю рекламу на сайте

09-03-2014 15:32 Сицилийский клан Скачать торрент  

ФИЛМ КЛИОВИЙ.pb.wtf



    Дорогой пользователь! Огромная просьба, поблагодарите релизера, оцените раздачу и оставьте свои комментарий, если Вы скачали Сицилийский клан через торрент бесплатно! Внесите свою лепту в развитие PiratBit!
    Комментировать посты могут только пользователи прошедшие не сложную регистрацию
    Показать сообщения:    

    Сицилийский клан через торрент
    Скачать бесплатно Сицилийский клан
    Сицилийский клан скачать торрент
    Сицилийский клан смотреть онлайн
    Cкачать фильм Сицилийский клан бесплатно
    Сицилийский клан скачать торрент в хорошем качестве
    Сицилийский клан смотреть онлайн бесплатно в хорошем качестве


    Вы не можете начинать темы
    Вы не можете отвечать на сообщения
    Вы не можете редактировать свои сообщения
    Вы не можете удалять свои сообщения
    Вы не можете голосовать в опросах
    Вы не можете прикреплять файлы к сообщениям
    Вы можете скачивать файлы