Мега распродажа FORZA HORIZON 4 ULTIMATE+ВСЕ DLC+ОНЛАЙН всего за 499р. 349 руб. (супер цена). Внимание количество ограничено!!!

iTunes

1+1

iTunes

мы

iTunes

1

1 сезон

Чернобыль

1 сезон

Ральф против интернета

Лицензия

ПШазам

8 сезон

Игра престолов

Лицензия

30
pack

ВАЖНО

!!Акция!!

Alien_RageХит недели

RePack

Resident Evil 21

ИГРА 18+

pack

RePack

Metro:Exodus

!!Акция!!

Alien_Rage

RePack

fifa19

RePack

Assassins Creed: Odyssey

RePack

NEED FOR SPEED™ PAYBACK

3 сезон

9 сезон

Бесстыжие 9 сезон

Все сериалы

все сериалы на PB.wtf

RePack

FAR CRY 5
Ребята, катастрофически не хватает 2730р. для оплаты серверов за ИЮНЬ (всвязи с блокировками трафик упал в 3 раза), 1-2р., выручайте.
  

Женщина в беде / Серии: 1-4 из 4 (Андрей Щербинин) [2014 г., Криминал, Мелодрама, SATRip] pb.wtf

Женщина в беде через торрент pb.wtf

Размер: 2.26 GB | Добавлен: 5 лет 4 мес. назад | Торрент скачан:622 раза
Скачать  

09-03-2014 11:18 Женщина в беде Скачать торрент  

Женщина в беде
Год выпуска: 2014
Страна: Россия ТВЦ ООО «Студия Грин Фильм» по заказу ООО «ПРИОР Продакшн»
Жанр: Криминал, Мелодрама
Продолжительность: 4 х ~ 00:42:00

Режиссер: Андрей Щербинин
Продюссер: Родион Павлючик, Игорь Марин
Сценарий: Наталья Кудрявцева



В ролях: Максим Щёголев, Татьяна Казючиц, Светлана Цвиченко, Вячеслав Гумеров, Диана Дезмари, Александр Петров, Игорь Колосов, Андрей Аксёнов, Вита Кузнецова

Описание: Николай помогает своей девушке Анне переехать в новую квартиру, куда вскоре тоже планирует перебраться. Во время переезда молодые люди знакомятся с соседом Иваном. И в первый же вечер, с еще неразобранными вещами, Аня и Николай решают отпраздновать новоселье. К ним присоединяется подруга Ани, Лена, которая дарит им на новоселье нож… Утро же становится кошмарным: Лена возвращается, чтобы забрать забытый накануне телефон, а Аня обнаруживает, что Николай ночью зарезан тем самым ножом, который подарила подруга. Аня попадает под подозрение и становится объектом шантажа. И никто не собирается помогать девушке, кроме нового соседа Ивана…

Качество: SATRip
Формат: AVI
Видео кодек: XviD
Аудио кодек: MP3
Видео: Xvid, 720x400, 25.00fps, 1 795 Kbps
Аудио: MPEG Audio Layer 3, 48000Hz, stereo, 128kbps
Релиз от: RiperAM





General
Complete name : K:�9 03 2014Женщина_в_беде_2014.SATRipЖенщина_в_беде_01.avi
Format : AVI
Format/Info : Audio Video Interleave
File size : 567 MiB
Duration : 40mn 59s
Overall bit rate : 1 933 Kbps
Writing application : VirtualDubMod 1.5.10.2 (build 2540/release)
Writing library : VirtualDub build 32507/release

Video
ID : 0
Format : MPEG-4 Visual
Format profile : Advanced Simple@L5
Format settings, BVOP : 2
Format settings, QPel : No
Format settings, GMC : No warppoints
Format settings, Matrix : Default (MPEG)
Codec ID : XVID
Codec ID/Hint : XviD
Duration : 40mn 59s
Bit rate : 1 795 Kbps
Width : 720 pixels
Height : 400 pixels
Display aspect ratio : 16:9
Frame rate : 25.000 fps
Color space : YUV
Chroma subsampling : 4:2:0
Bit depth : 8 bits
Scan type : Progressive
Compression mode : Lossy
Bits/(Pixel*Frame) : 0.249
Stream size : 526 MiB (93%)
Writing library : XviD 64

Audio
ID : 1
Format : MPEG Audio
Format version : Version 1
Format profile : Layer 3
Mode : Joint stereo
Codec ID : 55
Codec ID/Hint : MP3
Duration : 40mn 59s
Bit rate mode : Constant
Bit rate : 128 Kbps
Channel(s) : 2 channels
Sampling rate : 48.0 KHz
Compression mode : Lossy
Stream size : 37.5 MiB (7%)
Alignment : Aligned on interleaves
Interleave, duration : 40 ms (1.00 video frame)
Interleave, preload duration : 504 ms

pb.wtf



Скачать Женщина в беде через торрент http://pic.kartinco.top/images/6/jh4ki.jpg Скачать фильм Женщина в беде через торрент бесплантно в хорошем качестве Описание: Николай помогает своей девушке Анне переехать в новую квартиру, куда вскоре тоже планирует перебраться. Во время переезда молодые ... 9.6 10 18
Info! Золотая раздача, скачанное не засчитывается.
Торрент: Зарегистрирован [2014-03-09 11:18] · скачан: 622 раз
Статус: √ проверено
Размер: 2.26 GB
Как cкачать? Как скачать Женщина в беде через торрент | qTorrent

% Раздел Тема Автор DL S | L
Наши сериалы [ 2.15 GB ] Женщина в беде / 3 сезон / серии 1-4 из 4 [2017 SATRip] oleg8 Скачать
1 | 0
Наши сериалы [ 2.38 GB ] Женщина в беде / Сезон:2 / Серии: 1-4 из 4 [2015 Мело SATRip] lug30 Скачать
1 | 0


>> Регистрируемся здесь <<






Отзывы и комментарии о схеме читаем и пишем здесь: ---> Отзывы и комментарии о схеме

Новые благодарочки в телеграм довольных пользователей:
скриншот   скриншот   скриншот   скриншот   скриншот
    Дорогой пользователь! Огромная просьба, поблагодарите релизера, оцените раздачу и оставьте свои комментарий, если Вы скачали Женщина в беде через торрент бесплатно! Внесите свою лепту в развитие PiratBit!
    Комментировать посты могут только пользователи прошедшие не сложную регистрацию
    Показать сообщения:    

    Женщина в беде через торрент
    Скачать бесплатно Женщина в беде
    Женщина в беде скачать торрент
    Женщина в беде смотреть онлайн
    Cкачать фильм Женщина в беде бесплатно
    Женщина в беде скачать торрент в хорошем качестве
    Женщина в беде смотреть онлайн бесплатно в хорошем качестве


    Вы не можете начинать темы
    Вы не можете отвечать на сообщения
    Вы не можете редактировать свои сообщения
    Вы не можете удалять свои сообщения
    Вы не можете голосовать в опросах
    Вы не можете прикреплять файлы к сообщениям
    Вы можете скачивать файлы