MEGA SALE -50% FORZA HORIZON 4 ULTIMATE+ВСЕ DLC+ОНЛАЙН всего за 599р. 299 руб. (супер цена). Внимание количество ограничено!!!

iTunes

1+1

iTunes

мы

iTunes

1

iTunes

Чернобыль

iTunes

Ральф против интернета

Лицензия

ПШазам

Лицензия

Игра престолов

Лицензия

30
pack

ВАЖНО

!!Акция!!

Alien_RageХит недели

RePack

Resident Evil 21

ИГРА 18+

pack

RePack

Metro:Exodus

!!Акция!!

Alien_Rage

RePack

fifa19

RePack

Assassins Creed: Odyssey

RePack

NEED FOR SPEED™ PAYBACK

3 сезон

9 сезон

Бесстыжие 9 сезон

Все сериалы

все сериалы на PB.wtf

RePack

FAR CRY 5
Ребята, катастрофически не хватает 7730р. для оплаты серверов за АВГУСТ (всвязи с блокировками трафик упал в 3 раза), 1-2р., выручайте.
  

Мотель / The Bag Man (Дэвид Гровик / David Grovic) [ 2014 , США, Багамы , триллер, криминал , WEB-DLRip ]VO(qwerty) pb.wtf

Мотель через торрент pb.wtf

Размер: 1.39 GB | Добавлен: 5 лет 6 мес. назад | Торрент скачан:873 раза
Скачать  

09-03-2014 11:36 Мотель Скачать торрент  

Мотель / The Bag Man
«Кошки в сумке»

Год выпуска: 2014
Страна: США, Багамы
Жанр: триллер, криминал
Продолжительность: 01:48:34
Перевод: Любительский (одноголосый)(qwerty)
Субтитры: Нет

Режиссер: Дэвид Гровик / David Grovic
Сценарий: Дэвид Гровик / David Grovic, Пол Конуэй / Paul Conway, Джеймс Руссо / James Russo, Мари-Луиза фон Франц / Marie-Louise von Franz
Продюсер: Питер Грейвз / Peter Graves, Уоррен Остергард / Warren Ostergard, Дэвид Дилиберто / David Diliberto, Черелл Джордж / Cherelle George
Оператор: Стив Мейсон / Steve Mason
Композитор: Тони Моралес / Tony Morales, Эдвард Роджерс / Edward Rogers

Джон Кьюсак (Jack), Ребекка Да Коста (Rivka), Роберт Де Ниро (Dragna), Криспин Гловер (Ned), Доминик Пёрселл (Larson), Стикки Фингаз (Lizard), Мартин Клебба (Guano), Дэвид Шамбрис (Pike), Чезз Менендес (Man in Suit #1), Йен Маклафлин (Man in Suit #2), Теодус Крэйн (Goose), Майк Мэйхолл (Deputy Jones)

Мировая премьера: 28 февраля 2014

Описание:Наемный убийца Джек Стаффорд получает несложное задание: приехать в заштатный мотель в 300 милях от Питтсбурга, получить сумку с таинственным содержимым и оставаться в номере, пока за грузом не приедут. Условие одно: ни при каких обстоятельствах не заглядывать внутрь сумки. Но поручение оказывается простым лишь на первый взгляд. Вскоре киллер понимает, что за доверенным ему предметом охотятся коррумпированные агенты ФБР, продажные полицейские, провинциальные гангстеры и кровожадный карлик-цыган из Сербии. И каждый хочет всадить в Джека пулю. Число жертв растет на глазах, и дожить до рассвета смогут далеко не все постояльцы мотеля.

Рейтинг
imdb.com: 6.70 (23)
MPAA: R - Лицам до 17 лет обязательно присутствие взрослого

Качество: WEB-DLRip
Формат: AVI
Видео кодек: DivX 5
Аудио кодек: AC3/MP3
Видео: 1324 Кбит/сек, 720*304 (2,40:1), в 23,976 кадра/сек, MPEG-4 Visual (DivX 5)
Аудио №1: Русский 384 Кбит/сек, 48,0 КГц, 16 бит, 6 каналов, AC-3
Аудио №2: Английский 112 Кбит/сек, 48,0 КГц, 2 канала, MPEG Audio (MP3 )

Общее
Кол-во : 284
Кол-во потоков такого типа : 1
Тип потока : General
Тип потока : Общее
Идентификатор типа потока : 0
Inform : AVI: 1,39 Гбайт, 1 ч. 48 м.
Кол-во видеопотоков : 1
Кол-во аудиопотоков : 2
Video_Format_List : MPEG-4 Visual
Video_Format_WithHint_List : MPEG-4 Visual (DivX 5)
Видеокодеки : DivX 5
Audio_Format_List : AC-3 / MPEG Audio
Audio_Format_WithHint_List : AC-3 / MPEG Audio (MP3 )
Аудиокодеки : AC3 / MPEG-1 Audio layer 3
Полное имя : H:ТОРРЕНТЫМотель.avi
Имя папки : H:ТОРРЕНТЫ
Имя файла : Мотель
Расширение : avi
Формат : AVI
Формат : AVI
Формат/Информация : Audio Video Interleave
Формат/Используется в : avi
Коммерческое название : AVI
Интернет-тип носителя : video/vnd.avi
Чередующаяся : Yes
Кодек : AVI
Кодек : AVI
Кодек/Информация : Audio Video Interleave
Кодек/Используется в : avi
Размер файла : 1493284864
Размер файла : 1,39 Гбайт
Размер файла : 1 Гбайт
Размер файла : 1,4 Гбайт
Размер файла : 1,39 Гбайт
Размер файла : 1,391 Гбайт
Продолжительность : 6514258
Продолжительность : 1 ч. 48 м.
Продолжительность : 1 ч. 48 м. 34 с. 258 мс.
Продолжительность : 1 ч. 48 м.
Продолжительность : 01:48:34.258
Общий поток : 1833866
Общий поток : 1834 Кбит/сек
Размер потока : 11349858
Размер потока : 10,8 Мбайт (1%)
Размер потока : 11 Мбайт
Размер потока : 11 Мбайт
Размер потока : 10,8 Мбайт
Размер потока : 10,82 Мбайт
Размер потока : 10,8 Мбайт (1%)
Пропорции потока : 0.00760
Дата файла : UTC 2014-03-09 10:05:30.328
Дата файла (местная) : 2014-03-09 17:05:30.328
Дата изменения файла : UTC 2014-03-09 11:18:44.833
Дата изменения файла (местная) : 2014-03-09 18:18:44.833
Программа кодирования : VirtualDubMod 1.5.10.2 (build 2540/release)
Библиотека кодирования : VirtualDubMod build 2540/release
Библиотека кодирования : VirtualDubMod build 2540/release

Видео
Кол-во : 271
Кол-во потоков такого типа : 1
Тип потока : Video
Тип потока : Видео
Идентификатор типа потока : 0
StreamOrder : 0
Inform : 1324 Кбит/сек, 720*304 (2,40:1), в 23,976 кадра/сек, MPEG-4 Visual (DivX 5) (Simple@L1)
Идентификатор : 0
Идентификатор : 0
Формат : MPEG-4 Visual
Коммерческое название : MPEG-4 Visual
Профиль формата : Simple@L1
Параметр BVOP формата : No
Параметр BVOP формата : Нет
Параметр QPel формата : No
Параметр QPel формата : Нет
Параметр GMC формата : 0
Параметр GMC формата : Без точки перехода
Параметр матрицы формата : Default (H.263)
Параметр матрицы формата : Default (H.263)
Интернет-тип носителя : video/MP4V-ES
Идентификатор кодека : DX50
Идентификатор кодека/Подсказка : DivX 5
Идентификатор кодека/Ссылка : http://mediaarea.net/DX50
Кодек : DX50
Кодек : DivX 5
Кодек/Семейство : MPEG-4V
Кодек/Ссылка : http://www.divx.com
Кодек/CC : DX50
Профиль кодека : Simple@L1
Параметр пакетного потока данных кодека : No
Параметр BVOP кодека : No
Параметр QPel кодека : No
Параметр GMC кодека : 0
Параметр GMC кодека : Без точки перехода
Параметр матрицы кодека : Default (H.263)
Продолжительность : 6514258
Продолжительность : 1 ч. 48 м.
Продолжительность : 1 ч. 48 м. 34 с. 258 мс.
Продолжительность : 1 ч. 48 м.
Продолжительность : 01:48:34.258
Битрейт : 1323928
Битрейт : 1324 Кбит/сек
Ширина : 720
Ширина : 720 пикселей
Высота : 304
Высота : 304 пикселя
Пропорции пикселя : 1.021
Соотношение сторон : 2.419
Соотношение сторон : 2,40:1
Частота кадров : 23.976
Частота кадров : 23,976 кадра/сек
Счётчик кадров : 156186
Разрешение : 8
Разрешение : 8 бит
Колориметрия : 4:2:0
Цветовое пространство : YUV
Субдискретизация насыщенности : 4:2:0
Битовая глубина : 8
Битовая глубина : 8 бит
Тип развёртки : Progressive
Тип развёртки : Прогрессивная
Переплетение : PPF
Переплетение : Прогрессивная
Метод сжатия : Lossy
Метод сжатия : С потерями
Бит/(Пиксели*Кадры) : 0.252
Задержка : 0
Задержка : 00:00:00.000
Размер потока : 1078052014
Размер потока : 1,00 Гбайт (72%)
Размер потока : 1 Гбайт
Размер потока : 1,0 Гбайт
Размер потока : 1,00 Гбайт
Размер потока : 1,004 Гбайт
Размер потока : 1,00 Гбайт (72%)
Пропорции потока : 0.72193
Библиотека кодирования : Lavc51.40.4
Библиотека кодирования : Lavc51.40.4

Аудио #1
Кол-во : 234
Кол-во потоков такого типа : 2
Тип потока : Audio
Тип потока : Аудио
Идентификатор типа потока : 0
Позиция идентификатора типа потока : 1
StreamOrder : 1
Inform : 384 Кбит/сек, 48,0 КГц, 16 бит, 6 каналов, AC-3
Идентификатор : 1
Идентификатор : 1
Формат : AC-3
Формат/Информация : Audio Coding 3
Коммерческое название : AC-3
Расширение режима : CM (complete main)
Параметр Endianness формата : Big
Идентификатор кодека : 2000
Кодек : AC3
Кодек : AC3
Кодек/Семейство : AC3
Кодек/Информация : Dolby AC3
Кодек/CC : 2000
Продолжительность : 6514240
Продолжительность : 1 ч. 48 м.
Продолжительность : 1 ч. 48 м. 34 с. 240 мс.
Продолжительность : 1 ч. 48 м.
Продолжительность : 01:48:34.240
Вид битрейта : CBR
Вид битрейта : Постоянный
Битрейт : 384000
Битрейт : 384 Кбит/сек
Каналы : 6
Каналы : 6 каналов
Расположение каналов : Front: L C R, Side: L R, LFE
Расположение каналов : 3/2/0.1
Частота : 48000
Частота : 48,0 КГц
Количество образцов : 312683520
Разрешение : 16
Разрешение : 16 бит
Битовая глубина : 16
Битовая глубина : 16 бит
Метод сжатия : Lossy
Метод сжатия : С потерями
Задержка : 0
Задержка : 00:00:00.000
Задержка в оригинале : Stream
Задержка в оригинале : 'Сырой' поток
Задержка видео : 0
Задержка видео : 0
Размер потока : 312683520
Размер потока : 298 Мбайт (21%)
Размер потока : 298 Мбайт
Размер потока : 298 Мбайт
Размер потока : 298 Мбайт
Размер потока : 298,2 Мбайт
Размер потока : 298 Мбайт (21%)
Пропорции потока : 0.20939
Выравнивание : Split
Выравнивание : Разделение по промежуткам
Продолжительность промежутка : 1.00
Продолжительность промежутка : 42
Продолжительность промежутка : 42 мс. (1,00 видеокадр)
Время предзагрузки промежутка : 500
Время предзагрузки промежутка : 500 мс.
bsid : 8
dialnorm : -31
dialnorm/String : -31 dB
acmod : 7
lfeon : 1
dialnorm_Average : -31
dialnorm_Average/String : -31 dB
dialnorm_Minimum : -31
dialnorm_Minimum/String : -31 dB
dialnorm_Maximum : -31
dialnorm_Maximum/String : -31 dB
dialnorm_Count : 405

Аудио #2
Кол-во : 222
Кол-во потоков такого типа : 2
Тип потока : Audio
Тип потока : Аудио
Идентификатор типа потока : 1
Позиция идентификатора типа потока : 2
StreamOrder : 2
Inform : 112 Кбит/сек, 48,0 КГц, 2 канала, MPEG Audio (MP3 ) (Version 1) (Layer 3) (Joint stereo)
Идентификатор : 2
Идентификатор : 2
Формат : MPEG Audio
Коммерческое название : MPEG Audio
Версия формата : Version 1
Профиль формата : Layer 3
Настройки формата : Joint stereo
Режим : Joint stereo
Интернет-тип носителя : audio/mpeg
Идентификатор кодека : 55
Идентификатор кодека/Подсказка : MP3
Идентификатор кодека/Ссылка : http://www.iis.fraunhofer.de/amm/index.html
Кодек : MPA1L3
Кодек : MPEG-1 Audio layer 3
Кодек/Семейство : MPEG-1
Кодек/Информация : MPEG-1 or 2 layer 3
Кодек/Ссылка : http://www.iis.fraunhofer.de/amm/index.html
Кодек/CC : 55
Профиль кодека : Joint stereo
Продолжительность : 6514248
Продолжительность : 1 ч. 48 м.
Продолжительность : 1 ч. 48 м. 34 с. 248 мс.
Продолжительность : 1 ч. 48 м.
Продолжительность : 01:48:34.248
Вид битрейта : CBR
Вид битрейта : Постоянный
Битрейт : 112000
Битрейт : 112 Кбит/сек
Каналы : 2
Каналы : 2 канала
Частота : 48000
Частота : 48,0 КГц
Количество образцов : 312683904
Метод сжатия : Lossy
Метод сжатия : С потерями
Задержка : 0
Задержка : 00:00:00.000
Задержка в оригинале : Stream
Задержка в оригинале : 'Сырой' поток
Задержка видео : 0
Задержка видео : 0
Размер потока : 91199472
Размер потока : 87,0 Мбайт (6%)
Размер потока : 87 Мбайт
Размер потока : 87 Мбайт
Размер потока : 87,0 Мбайт
Размер потока : 86,97 Мбайт
Размер потока : 87,0 Мбайт (6%)
Пропорции потока : 0.06107
Выравнивание : Aligned
Выравнивание : Соединение по промежуткам
Продолжительность промежутка : 1.00
Продолжительность промежутка : 42
Продолжительность промежутка : 42 мс. (1,00 видеокадр)
Время предзагрузки промежутка : 504
Время предзагрузки промежутка : 504 мс.
Библиотека кодирования : LAME3.97
Библиотека кодирования : LAME3.97





pb.wtf



Скачать Мотель через торрент http://pic.kartinco.top/images/6/opwep.jpg Скачать фильм Мотель через торрент бесплантно в хорошем качестве Описание:Наемный убийца Джек Стаффорд получает несложное задание: приехать в заштатный мотель в 300 милях от Питтсбурга, получить сумку с ... 9.5 10 20
Info! Серебряная раздача, засчитывается только 50% скачанного.
Торрент: Зарегистрирован [2014-03-09 11:36] · скачан: 873 раз
Статус: T временная
Размер: 1.39 GB
Как cкачать? Как скачать Мотель через торрент | qTorrent

% Раздел Тема Автор DL S | L
Фильмы 2014 [DVDrip, WEB-DLRip, HDrip] [ 1.4 GB ] Мотель / The Bag Man [2014 HDRip многоголосый] Ворон Скачать
1 | 0
Фильмы 2014 [DVDrip, WEB-DLRip, HDrip] [ 2.05 GB ] Мотель / Сумка / The Bag Man [2014 HDRip многоголосый / ] Ворон Скачать
1 | 0
Фильмы 2014 [DVDrip, WEB-DLRip, HDrip] [ 1.46 GB ] Мотель / Сумка / The Bag Man [2014 HDRip многоголосый / ] Ворон Скачать
1 | 0
Фильмы [HD 720p, 1080p] (Хороший звук DUB, MVO) [ 5.66 GB ] Мотель / Сумка / The Bag Man [2014 BDRip 720p многоголосый / ] Ворон Скачать
1 | 0
Фильмы с авторской озвучкой [ 1.5 GB ] Мотель / The Bag Man [2014 HDRip Авторский одноголосый "А.Карповский"] coc900 Скачать
1 | 0
T Фильмы без перевода [ 817 MB ] Мотель / The Bag Man [2014 HDRip-AVC] [ENG] killermax2013 Скачать
1 | 0


Последний раз редактировалось: GEKADOL (2014-04-11 03:54), всего редактировалось 1 раз


>> Регистрируемся здесь <<






Отзывы и комментарии о схеме читаем и пишем здесь: ---> Отзывы и комментарии о схеме

Новые благодарочки в телеграм довольных пользователей:
скриншот   скриншот   скриншот   скриншот   скриншот

09-03-2014 13:50 Мотель Скачать торрент  

Что за манечка пошла выкладывать фильмы с переводом, как на десятый раз перезаписанной кассете начала восьмидесятых??? Что за удовольствие от просмотра???pb.wtf



12-03-2014 16:52 Мотель Скачать торрент  

Озвучка Хихидока доставляет больше удовольствия, чем этоpb.wtf



14-03-2014 21:55 Мотель Скачать торрент  

фильм отличный перевод тоже на твердую пятерочкуpb.wtf



24-03-2014 15:23 Мотель Скачать торрент  

Чёт на кинопоиске рейтинг мягко выражаясь не очень. А точнее - полный провал.
Как увидел Кьюсака и де Ниро, был уверен на 100%, что фильм супер. Теперь сижу в раздумьях, качать, не качатьpb.wtf



    Дорогой пользователь! Огромная просьба, поблагодарите релизера, оцените раздачу и оставьте свои комментарий, если Вы скачали Мотель через торрент бесплатно! Внесите свою лепту в развитие PiratBit!
    Комментировать посты могут только пользователи прошедшие не сложную регистрацию
    Показать сообщения:    

    Мотель через торрент
    Скачать бесплатно Мотель
    Мотель скачать торрент
    Мотель смотреть онлайн
    Cкачать фильм Мотель бесплатно
    Мотель скачать торрент в хорошем качестве
    Мотель смотреть онлайн бесплатно в хорошем качестве


    Вы не можете начинать темы
    Вы не можете отвечать на сообщения
    Вы не можете редактировать свои сообщения
    Вы не можете удалять свои сообщения
    Вы не можете голосовать в опросах
    Вы не можете прикреплять файлы к сообщениям
    Вы можете скачивать файлы