2 сезон

iTunes

MVO

1

2 сезон

iTunes

iTunes

1 сезон

RePack

30

Новинка

ВАЖНО

ИГРА 18+

pack

RePack

MK11
pack

Легкие деньги

RePack

jed

RePack

fifa19

RePack

RDR2

RePack

NEED FOR SPEED™ PAYBACK

4 сезон

9 сезон

Бесстыжие 9 сезон

Все сериалы

все сериалы на PB.wtf

RePack

FAR CRY 5

Anonymous, добрый вечер, мы не успеваем собрать деньги на оплату серверов за декабрь и январь, помогите нам пожалуйста в это трудное время. В качестве благодарности мы отключим Вам всю рекламу на сайте (укажите свой ник в строку Ваше имя)!

×
  
Magnet ссылка

Советник / The Counselor (Ридли Скотт / Ridley Scott) [2013 г., триллер, драма, криминал, BDRip-AVC, Дубляж, Лицензия] pb.wtf

Советник через торрент pb.wtf

Размер: 2.91 GB | Добавлен: 6 лет 10 мес. назад | Торрент скачан:327 раз
Скачать  

09-03-2014 17:26 Советник Скачать торрент  

Советник / The Counselor
Год выпуска: 2013
Страна: США, Великобритания
Жанр: триллер, драма, криминал,
Продолжительность: 02:17:56
Перевод: Дубляж, Лицензия
Тип релиза: Лицензия
Субтитры: Russian, Ukrainian,English

Режиссер: Ридли Скотт / Ridley Scott
Продюссер: Пола Мэй Шварц, Стив Шварц, Ридли Скотт
Сценарий: Кормак МакКарти

Бюджет: 25 000 000
Премьера в мире: $53 263 394 = $70 237 109

В ролях: Майкл Фассбендер, Пенелопа Крус, Кэмерон Диаз, Хавьер Бардем, Брэд Питт, Бруно Ганц, Рози Перес, Тоби Кеббелл, Эмма Ригби, Эдгар Рамирес,

Описание: Успешный адвокат, стоящий практически на вершине успеха и на пороге собственной свадьбы, из любопытства и, конечно, ради денег соглашается на предложение своего давнего знакомого, имеющего тесные связи с преступным миром, перевезти из Мексики в США партию кокаина стоимостью 20 млн. долл.

Качество: BDRip-AVC
Формат: MKV
Видео кодек: H.264
Аудио кодек: AC3
Видео: AVC, 1024x424 (2.415), 23.976 fps, 2 396 Kbps (0.223 bit/pixel)
Аудио#1: AC-3, 48.0 KHz, 6 ch, 384 Kbps, CBR (Russian)
Аудио#2: AC-3, 48.0 KHz, 6 ch, 384 Kbps, CBR (English)
Аудио#3: AC-3, 48.0 KHz, 6 ch, 384 Kbps, CBR (Ukrainian)
Релиз от: vovan
Общее
Уникальный идентификатор : 176779419431932957884544861039905040359 (0x84FE7A4D667AE8619D1DFDC75CED67E7)
Полное имя : D:ШараThe Counselor.BDRip-AVC...vovan
Формат : Matroska
Версия формата : Version 2
Размер файла : 2,91 Гбайт
Продолжительность : 1 ч. 57 м.
Общий поток : 3551 Кбит/сек
Дата кодирования : UTC 2014-03-09 06:59:48
Программа кодирования : mkvmerge v6.5.0 ('Isn't she lovely') built on Oct 20 2013 12:50:05
Библиотека кодирования : libebml v1.3.0 + libmatroska v1.4.1

Видео
Идентификатор : 1
Формат : AVC
Формат/Информация : Advanced Video Codec
Профиль формата : High@L3.1
Параметр CABAC формата : Да
Параметр ReFrames формата : 4 кадра
Идентификатор кодека : V_MPEG4/ISO/AVC
Продолжительность : 1 ч. 57 м.
Битрейт : 2396 Кбит/сек
Ширина : 1024 пикселя
Высота : 424 пикселя
Соотношение сторон : 2,40:1
Режим частоты кадров : Постоянный
Частота кадров : 23,976 кадра/сек
Цветовое пространство : YUV
Субдискретизация насыщенности : 4:2:0
Битовая глубина : 8 бит
Тип развёртки : Прогрессивная
Бит/(Пиксели*Кадры) : 0.230
Размер потока : 1,91 Гбайт (66%)
Библиотека кодирования : x264 core 138 r2358 9e941d1
Настройки программы : cabac=1 / ref=3 / deblock=1:0:0 / analyse=0x3:0x113 / me=hex / subme=7 / psy=1 / psy_rd=1.00:0.00 / mixed_ref=1 / me_range=16 / chroma_me=1 / trellis=1 / 8x8dct=1 / cqm=0 / deadzone=21,11 / fast_pskip=1 / chroma_qp_offset=-2 / threads=12 / lookahead_threads=2 / sliced_threads=0 / nr=0 / decimate=1 / interlaced=0 / bluray_compat=0 / constrained_intra=0 / bframes=3 / b_pyramid=2 / b_adapt=1 / b_bias=0 / direct=1 / weightb=1 / open_gop=0 / weightp=2 / keyint=240 / keyint_min=23 / scenecut=40 / intra_refresh=0 / rc_lookahead=40 / rc=2pass / mbtree=1 / bitrate=2396 / ratetol=1.0 / qcomp=0.60 / qpmin=0 / qpmax=69 / qpstep=4 / cplxblur=20.0 / qblur=0.5 / ip_ratio=1.40 / aq=1:1.00
Default : Да
Forced : Нет

Аудио #1
Идентификатор : 2
Формат : AC-3
Формат/Информация : Audio Coding 3
Расширение режима : CM (complete main)
Параметр Endianness формата : Big
Идентификатор кодека : A_AC3
Продолжительность : 1 ч. 57 м.
Вид битрейта : Постоянный
Битрейт : 384 Кбит/сек
Каналы : 6 каналов
Расположение каналов : Front: L C R, Side: L R, LFE
Частота : 48,0 КГц
Битовая глубина : 16 бит
Метод сжатия : С потерями
Размер потока : 322 Мбайт (11%)
Язык : Russian
Default : Да
Forced : Нет

Аудио #2
Идентификатор : 3
Формат : AC-3
Формат/Информация : Audio Coding 3
Расширение режима : CM (complete main)
Параметр Endianness формата : Big
Идентификатор кодека : A_AC3
Продолжительность : 1 ч. 57 м.
Вид битрейта : Постоянный
Битрейт : 384 Кбит/сек
Каналы : 6 каналов
Расположение каналов : Front: L C R, Side: L R, LFE
Частота : 48,0 КГц
Битовая глубина : 16 бит
Метод сжатия : С потерями
Размер потока : 322 Мбайт (11%)
Язык : English
Default : Нет
Forced : Нет

Аудио #3
Идентификатор : 4
Формат : AC-3
Формат/Информация : Audio Coding 3
Расширение режима : CM (complete main)
Параметр Endianness формата : Big
Идентификатор кодека : A_AC3
Продолжительность : 1 ч. 57 м.
Вид битрейта : Постоянный
Битрейт : 384 Кбит/сек
Каналы : 6 каналов
Расположение каналов : Front: L C R, Side: L R, LFE
Частота : 48,0 КГц
Битовая глубина : 16 бит
Метод сжатия : С потерями
Размер потока : 322 Мбайт (11%)
Язык : Ukrainian
Default : Нет
Forced : Нет

Текст #1
Идентификатор : 5
Формат : UTF-8
Идентификатор кодека : S_TEXT/UTF8
Идентификатор кодека/Информация : UTF-8 Plain Text
Заголовок : full
Язык : Russian
Default : Нет
Forced : Нет

Текст #2
Идентификатор : 6
Формат : UTF-8
Идентификатор кодека : S_TEXT/UTF8
Идентификатор кодека/Информация : UTF-8 Plain Text
Заголовок : full
Язык : English
Default : Нет
Forced : Нет

Текст #3
Идентификатор : 7
Формат : UTF-8
Идентификатор кодека : S_TEXT/UTF8
Идентификатор кодека/Информация : UTF-8 Plain Text
Заголовок : full
Язык : Ukrainian
Default : Нет
Forced : Нет

Меню
00:00:00.000 : en:Chapter 1
00:04:44.701 : en:Chapter 2
00:07:54.056 : en:Chapter 3
00:09:49.588 : en:Chapter 4
00:13:45.532 : en:Chapter 5
00:20:49.831 : en:Chapter 6
00:23:53.098 : en:Chapter 7
00:26:31.715 : en:Chapter 8
00:34:09.881 : en:Chapter 9
00:39:30.659 : en:Chapter 10
00:45:38.402 : en:Chapter 11
00:48:20.772 : en:Chapter 12
00:54:04.157 : en:Chapter 13
00:58:46.272 : en:Chapter 14
01:00:29.083 : en:Chapter 15
01:08:26.352 : en:Chapter 16
01:12:55.162 : en:Chapter 17
01:17:10.834 : en:Chapter 18
01:20:23.735 : en:Chapter 19
01:23:28.795 : en:Chapter 20
01:25:56.067 : en:Chapter 21
01:30:28.589 : en:Chapter 22
01:33:16.132 : en:Chapter 23
01:38:24.273 : en:Chapter 24
01:43:28.577 : en:Chapter 25
01:47:40.662 : en:Chapter 26
01:49:45.829 : en:Chapter 27
01:53:11.618 : en:Chapter 28
pb.wtf



Скачать Советник через торрент http://2.firepic.org/2/images/2014-03/09/diay2zp5chj2.png Скачать фильм Советник через торрент бесплантно в хорошем качестве Описание: Успешный адвокат, стоящий практически на вершине успеха и на пороге собственной свадьбы, из любопытства и, конечно, ради денег ... 8.7 10 15
Торрент: Зарегистрирован [2014-03-09 17:26] · скачан: 327 раз
Статус: √ проверено
Размер: 2.91 GB
Как cкачать? Как скачать Советник через торрент | UTorrent

% Раздел Тема Автор DL S | L
Фильмы [HD 720p, 1080p] (Хороший звук DUB, MVO) [ 5.65 GB ] Советник / The Counselor [2013 BDRip 720p ] кэп Скачать
1 | 0
Фильмы [HD 720p, 1080p] (Хороший звук DUB, MVO) [ 12.49 GB ] Советник [Театральная версия] / The Counselor [Theatrical Cut] [2013 BDRip 1080p] Messa-fan Скачать
1 | 0
Фильмы (Blu-ray, BD-Remux, HDDVD) [ 23.78 GB ] Советник / The Counselor [Extended Cut] [2013 BDRemux 1080p от ExKinoRay] Ворон Скачать
1 | 0
Фильмы [HD 720p, 1080p] (Хороший звук DUB, MVO) [ 16.56 GB ] Советник / The Counselor [Extended Cut] [2013 BDRip 1080p] Dub + Dub Ukr + Sub Rus Ukr Eng+ Original Eng Assasinca Скачать
1 | 0
Фильмы 2013 [DVDrip, WEB-DLRip, HDrip] [ 1.46 GB ] Советник / The Counselor [2013 HDRip ] кэп Скачать
1 | 0
Фильмы (DVD фильмы) [ 6.21 GB ] Советник / The Counselor [2013 DVD9] R5 voovaz Скачать
1 | 0
Фильмы 2013 [DVDrip, WEB-DLRip, HDrip] [ 2.19 GB ] Советник / The Counselor [2013 BDRip-AVC] [Theatrical] Dub + Original + Sub potroks Скачать
1 | 0


Последний раз редактировалось: vovan (2014-03-09 18:16), всего редактировалось 1 раз

28-11-2019 20:33  

Отключить всю рекламу на сайте

09-03-2014 17:47 Советник Скачать торрент  

vovan
Добавьте пожалуйста отчет MediaInfo
Как получить информацию по видеофайлу pb.wtf



09-03-2014 20:37 Советник Скачать торрент  

расширенная версия?pb.wtf



10-03-2014 01:42 Советник Скачать торрент  

Да,это расширенная версияpb.wtf



11-03-2014 21:26 Советник Скачать торрент  

У меня почему-то расширение файла оказалось .vovanpb.wtf



    Дорогой пользователь! Огромная просьба, поблагодарите релизера, оцените раздачу и оставьте свои комментарий, если Вы скачали Советник через торрент бесплатно! Внесите свою лепту в развитие PiratBit!
    Комментировать посты могут только пользователи прошедшие не сложную регистрацию
    Показать сообщения:    

    Советник через торрент
    Скачать бесплатно Советник
    Советник скачать торрент
    Советник смотреть онлайн
    Cкачать фильм Советник бесплатно
    Советник скачать торрент в хорошем качестве
    Советник смотреть онлайн бесплатно в хорошем качестве


    Вы не можете начинать темы
    Вы не можете отвечать на сообщения
    Вы не можете редактировать свои сообщения
    Вы не можете удалять свои сообщения
    Вы не можете голосовать в опросах
    Вы не можете прикреплять файлы к сообщениям
    Вы можете скачивать файлы