Ссылка на приватное зеркало нашего сайта всего за 1$. Внимание количество ограничено!!!

2 сезон

iTunes

1 сезон

1

iTunes

iTunes

iTunes

1 сезон

RePack

30

ИГРА 18+

pack

ВАЖНО

!!Акция!!

Alien_RageХит недели

RePack

MK11
pack

Забери бонус

RePack

jed

!!Акция!!

Alien_Rage

RePack

fifa19

RePack

Assassins Creed: Odyssey

RePack

NEED FOR SPEED™ PAYBACK

4 сезон

9 сезон

Бесстыжие 9 сезон

Все сериалы

все сериалы на PB.wtf

RePack

FAR CRY 5
  

Друзья друзей (Артем Аксененко, Араик Оганесян) [2013 г., Комедия, DVDRip, Лицензия] pb.wtf

Друзья друзей через торрент pb.wtf

Размер: 1.45 GB | Добавлен: 6 лет 8 мес. назад | Торрент скачан:1901 раз
Скачать  

04-02-2014 12:46 Друзья друзей Скачать торрент  

Друзья друзей
Год выпуска: 2013
Страна: Россия
Жанр: Комедия,
Продолжительность: 01:26:52
Тип релиза: Лицензия

Режиссер: Артем Аксененко Араик Оганесян
Продюссер: Георгий Малков, Сарик Андреасян, Гевонд Андреасян
Сценарий: Павел Воронин, Ярослав Лукашевич, Тихон Корнев

Бюджет: $2 000 000
Премьера в мире: 1 января 2014

зрителям, достигшим 16 лет


В ролях: Нюша Шурочкина, Гарик Харламов, Юрий Стоянов, Николай Наумов, Александр Ильин мл., Тимур Батрутдинов, Александр Молочников, Андрей Гайдулян, Олег Верещагин, Александр Булатов,

Описание: В канун Нового года пересекаются истории промоутера, впервые оставшегося дома с пятилетним ребенком, трех музыкантов из филармонии, решившихся на ограбление сурового бизнесмена, на домашнюю вечеринку к которому их отправил тот самый промоутер, и бедного студента, пригласившего на первое свидание в дорогой ресторан дочку того самого сурового бизнесмена. В результате, каждый из героев попадет в нелепые, пикантные, опасные, но все равно очень смешные ситуации, выбраться из которых им, конечно, помогут, друзья…

Качество: DVDRip
Формат: AVI
Видео кодек: XviD
Аудио кодек: AC3
Видео: 704x384 (1.83:1), 25 fps, XviD build 50 ~1939 kbps avg, 0.29 bit/pixel
Аудио#1: 48 kHz, AC3 Dolby Digital, 3/2 (L,C,R,l,r) + LFE ch, ~448.00 kbps avg




Общее
Полное имя : F:ЗакачкиDruz'ya.Druzey.2013.DVDRip.avi
Формат : AVI
Формат/Информация : Audio Video Interleave
Размер файла : 1,45 Гбайт
Продолжительность : 1 ч. 26 м.
Общий поток : 2397 Кбит/сек
Программа кодирования : VirtualDubMod 1.5.10.3 | www.virtualdub-fr.org || (build 2550/release)
Библиотека кодирования : VirtualDubMod build 2550/release

Видео
Идентификатор : 0
Формат : MPEG-4 Visual
Профиль формата : Advanced Simple@L5
Параметр BVOP формата : 2
Параметр QPel формата : Нет
Параметр GMC формата : Без точки перехода
Параметр матрицы формата : Default (H.263)
Идентификатор кодека : XVID
Идентификатор кодека/Подсказка : XviD
Продолжительность : 1 ч. 26 м.
Битрейт : 1939 Кбит/сек
Ширина : 704 пикселя
Высота : 384 пикселя
Соотношение сторон : 1,85:1
Частота кадров : 25,000 кадров/сек
Цветовое пространство : YUV
Субдискретизация насыщенности : 4:2:0
Битовая глубина : 8 бит
Тип развёртки : Прогрессивная
Метод сжатия : С потерями
Бит/(Пиксели*Кадры) : 0.287
Размер потока : 1,18 Гбайт (81%)
Библиотека кодирования : XviD 1.2.1 (UTC 2008-12-04)

Аудио
Идентификатор : 1
Формат : AC-3
Формат/Информация : Audio Coding 3
Расширение режима : CM (complete main)
Параметр Endianness формата : Big
Идентификатор кодека : 2000
Продолжительность : 1 ч. 26 м.
Вид битрейта : Постоянный
Битрейт : 448 Кбит/сек
Каналы : 6 каналов
Расположение каналов : Front: L C R, Side: L R, LFE
Частота : 48,0 КГц
Битовая глубина : 16 бит
Метод сжатия : С потерями
Размер потока : 278 Мбайт (19%)
Выравнивание : Разделение по промежуткам
Продолжительность промежутка : 40 мс. (1,00 видеокадр)
Время предзагрузки промежутка : 500 мс.


Друзья друзей скачать торрент


pb.wtf



Скачать Друзья друзей через торрент http://s8.uploads.ru/fLFuv.jpg Скачать фильм Друзья друзей через торрент бесплантно в хорошем качестве Описание: В канун Нового года пересекаются истории промоутера, впервые оставшегося дома с пятилетним ребенком, трех музыкантов из ... 9.2 10 52
Info! Золотая раздача, скачанное не засчитывается.
Торрент: Зарегистрирован [2014-02-04 12:46] · скачан: 1 901 раз
Статус: √ проверено
Размер: 1.45 GB
Как cкачать? Как скачать Друзья друзей через торрент | qTorrent

% Раздел Тема Автор DL S | L
Отечественный Рэп, Хип-Хоп [ 673 MB ] Баста - В Кругу Друзей - 2010 MP3 128 kbps uklopp Скачать
1 | 0
Зарубежные сериалы [ 5.84 GB ] Друзья / Friends / Сезон: 1 / Серии 1-24 [1994-1995 г ситком BDRip] MVO dexter lex Скачать
1 | 0
Зарубежные сериалы [ 91.75 GB ] Друзья / Friends [1994-2004 ... DVDRip] DragonHard Скачать
1 | 0
Мультсериалы [ 25.84 GB ] Лунтик и его друзья. Полное собрание. Сезон: 1-6 [2006 - 2011 анимационный сериал DVDRip] Sever Скачать
2 | 0
Гонзо [ 1.37 GB ] Саша Грей И Друзья / Sasha Grey And Friends [2012 Compilation DVDRip] лисяра Скачать
1 | 0
Зарубежные Мультфильмы (DVD) [ 3.49 GB ] Новые Микки Мауса и его друзей / Mickey Mouse and Friends [2011 Сборник мультфильмов DVD5] paul08 Скачать
1 | 1
Сборники (HD Video) [ 23.43 GB ] Друзья Оушена. Трилогия / Oceans N. Trilogy [2001 2004 2007 Blu-Ray Rip] [1080p|DVD9] Курортник Скачать
1 | 0

28-11-2019 20:33  

Отключить всю рекламу на сайте

10-02-2014 15:27 Друзья друзей Скачать торрент  

а где коментарии?pb.wtf



    Дорогой пользователь! Огромная просьба, поблагодарите релизера, оцените раздачу и оставьте свои комментарий, если Вы скачали Друзья друзей через торрент бесплатно! Внесите свою лепту в развитие PiratBit!
    Комментировать посты могут только пользователи прошедшие не сложную регистрацию
    Показать сообщения:    

    Друзья друзей через торрент
    Скачать бесплатно Друзья друзей
    Друзья друзей скачать торрент
    Друзья друзей смотреть онлайн
    Cкачать фильм Друзья друзей бесплатно
    Друзья друзей скачать торрент в хорошем качестве
    Друзья друзей смотреть онлайн бесплатно в хорошем качестве


    Вы не можете начинать темы
    Вы не можете отвечать на сообщения
    Вы не можете редактировать свои сообщения
    Вы не можете удалять свои сообщения
    Вы не можете голосовать в опросах
    Вы не можете прикреплять файлы к сообщениям
    Вы можете скачивать файлы