Ссылка на приватное зеркало нашего сайта всего за 1$. Внимание количество ограничено!!!

2 сезон

iTunes

1 сезон

1

iTunes

iTunes

iTunes

1 сезон

RePack

30

ИГРА 18+

pack

ВАЖНО

!!Акция!!

Alien_RageХит недели

RePack

MK11
pack

Забери бонус

RePack

jed

!!Акция!!

Alien_Rage

RePack

fifa19

RePack

Assassins Creed: Odyssey

RePack

NEED FOR SPEED™ PAYBACK

4 сезон

9 сезон

Бесстыжие 9 сезон

Все сериалы

все сериалы на PB.wtf

RePack

FAR CRY 5
  

В погоне за счастьем / The Pursuit of Happyness (Габриэль Муччино / Gabriele Muccino) [2006 г.,драма, биография, BDRip 1080p] pb.wtf

В погоне за счастьем через торрент pb.wtf

Размер: 8.68 GB | Добавлен: 6 лет 7 мес. назад | Торрент скачан:219 раз
Скачать  

10-03-2014 06:53 В погоне за счастьем Скачать торрент  

В погоне за счастьем / The Pursuit of Happyness«Никому не позволяй говорить, будто ты чего-то не можешь... У тебя есть мечта - защищай её»
Год выпуска: 2006
Страна: США
Жанр: драма, биография
Продолжительность: 01:57:27

  • Перевод: Профессиональный (Дубляж);
  • Русские субтитры: нет
  • Оригинальная аудиодорожка: Английская

Режиссер: Габриэль Муччино / Gabriele Muccino
В ролях: Уилл Смит, Джейден Смит, Тэнди Ньютон, Брайан Хоу, Джеймс Карен, Дэн Кастелланета, Курт Фуллер, Такайо Фишер, Кевин Уэст, Джордж Чунг, Дэвид Майкл Силверман, Domenic Bove, Джофф Каллэн, Джойфул Рэйвен, Scott Klace, Rashida Clendening, Eric Schniewind, Питер Фицсиммонс, Maurice Sherbanee, Zuhair Haddad, Виктор Рэйдер-Векслер
Описание: Крис Гарднер — отец одиночка. Воспитывая пятилетнего сына, Крис изо всех сил старается сделать так, чтобы ребенок рос счастливым. Работая продавцом, он не может оплатить квартиру, и их выселяют.

Оказавшись на улице, но не желая сдаваться, отец устраивается специалистом в брокерскую компанию. Только и там его доходы далеки от нормальных. Но Крис поклялся себе во чтобы то ни стало вырастить сына, и никакие трудности его не остановят.

    Тип релиза: BDRip 1080p
  • Контейнер: MKV
  • Видео кодек: H.264 | Аудио кодек: АС-3
  • Видео: 1920 x 800 at 23.976 fps, x264@L4.1, ~9000 kbps avg
  • Аудио 1: Russian: 48 kHz, AC3, 3/2 (L,C,R,l,r) + LFE ch, ~448.00 kbps avg
  • Аудио 2: Ukrainian: 48 kHz, AC3, 3/2 (L,C,R,l,r) + LFE ch, ~448.00 kbps avg
  • Аудио 3: English: 48 kHz, АС3, 3/2 (L,C,R,l,r) + LFE ch, ~640.00 kbps avg
  • Субтитры: French, Spanish, Swedish, Portugese (BR), Hungarian, Serbian, Hebrew


Полное имя : D:torrenttorThe.Pursuit.of.Happyness.2006.BDRip.1080p.Rus.Ukr.Eng.mkv
Формат : Matroska
Версия формата : Version 1
Размер файла : 8,68 Гбайт
Продолжительность : 1 ч. 57 м.
Общий поток : 10,6 Мбит/сек
Дата кодирования : UTC 2007-06-22 09:06:08
Программа кодирования : mkvmerge v2.0.2 ('You're My Flame') built on Feb 21 2007 23:40:55
Библиотека кодирования : libebml v0.7.7 + libmatroska v0.8.1
Attachment : Yes / Yes

Видео
Идентификатор : 1
Формат : AVC
Формат/Информация : Advanced Video Codec
Профиль формата : High@L5.1
Параметр CABAC формата : Да
Параметр ReFrames формата : 8 кадров
Идентификатор кодека : V_MPEG4/ISO/AVC
Продолжительность : 1 ч. 57 м.
Битрейт : 9047 Кбит/сек
Ширина : 1920 пикселей
Высота : 800 пикселей
Соотношение сторон : 2,40:1
Режим частоты кадров : Постоянный
Частота кадров : 23,976 кадра/сек
Цветовое пространство : YUV
Субдискретизация насыщенности : 4:2:0
Битовая глубина : 8 бит
Тип развёртки : Прогрессивная
Бит/(Пиксели*Кадры) : 0.246
Размер потока : 7,25 Гбайт (83%)
Заголовок : The Pursuit of Happyness (2006)
Библиотека кодирования : x264 core 55
Настройки программы : cabac=1 / ref=5 / deblock=1:-6:-6 / analyse=0x3:0x133 / me=umh / subme=7 / brdo=1 / mixed_ref=1 / me_range=16 / chroma_me=1 / trellis=1 / 8x8dct=1 / cqm=2 / deadzone=21,11 / chroma_qp_offset=0 / threads=3 / nr=0 / decimate=1 / mbaff=0 / bframes=3 / b_pyramid=1 / b_adapt=1 / b_bias=0 / direct=3 / wpredb=1 / bime=1 / keyint=250 / keyint_min=25 / scenecut=40(pre) / rc=2pass / bitrate=9047 / ratetol=1.0 / rceq='blurCplx^(1-qComp)' / qcomp=0.60 / qpmin=10 / qpmax=51 / qpstep=4 / cplxblur=20.0 / qblur=0.5 / ip_ratio=1.40 / pb_ratio=1.30 / aq=1:0.3:15.0
Язык : English
Default : Да
Forced : Нет

Аудио #1
Идентификатор : 2
Формат : AC-3
Формат/Информация : Audio Coding 3
Расширение режима : CM (complete main)
Параметр Endianness формата : Big
Идентификатор кодека : A_AC3
Продолжительность : 1 ч. 57 м.
Вид битрейта : Постоянный
Битрейт : 448 Кбит/сек
Каналы : 6 каналов
Расположение каналов : Front: L C R, Side: L R, LFE
Частота : 48,0 КГц
Битовая глубина : 16 бит
Метод сжатия : С потерями
Размер потока : 376 Мбайт (4%)
Заголовок : Russian AC3 5.1 (448kbps)
Язык : Russian
Default : Да
Forced : Нет

Аудио #2
Идентификатор : 3
Формат : AC-3
Формат/Информация : Audio Coding 3
Расширение режима : CM (complete main)
Параметр Endianness формата : Big
Идентификатор кодека : A_AC3
Продолжительность : 1 ч. 57 м.
Вид битрейта : Постоянный
Битрейт : 448 Кбит/сек
Каналы : 6 каналов
Расположение каналов : Front: L C R, Side: L R, LFE
Частота : 48,0 КГц
Битовая глубина : 16 бит
Метод сжатия : С потерями
Размер потока : 376 Мбайт (4%)
Заголовок : Ukrainian AC3 5.1 (448kbps)
Язык : Ukrainian
Default : Нет
Forced : Нет

Аудио #3
Идентификатор : 4
Формат : AC-3
Формат/Информация : Audio Coding 3
Расширение режима : CM (complete main)
Параметр Endianness формата : Big
Идентификатор кодека : A_AC3
Продолжительность : 1 ч. 57 м.
Вид битрейта : Постоянный
Битрейт : 640 Кбит/сек
Каналы : 6 каналов
Расположение каналов : Front: L C R, Side: L R, LFE
Частота : 48,0 КГц
Битовая глубина : 16 бит
Метод сжатия : С потерями
Размер потока : 538 Мбайт (6%)
Заголовок : English AC3 5.1 (640kbps)
Язык : English
Default : Нет
Forced : Нет

Текст #1
Идентификатор : 5
Формат : ASS
Идентификатор кодека : S_TEXT/ASS
Идентификатор кодека/Информация : Advanced Sub Station Alpha
Метод сжатия : Без потерь
Заголовок : English
Язык : English
Default : Да
Forced : Нет

Текст #2
Идентификатор : 6
Формат : ASS
Идентификатор кодека : S_TEXT/ASS
Идентификатор кодека/Информация : Advanced Sub Station Alpha
Метод сжатия : Без потерь
Заголовок : French
Язык : French
Default : Нет
Forced : Нет

Текст #3
Идентификатор : 7
Формат : ASS
Идентификатор кодека : S_TEXT/ASS
Идентификатор кодека/Информация : Advanced Sub Station Alpha
Метод сжатия : Без потерь
Заголовок : Spanish
Язык : Spanish
Default : Нет
Forced : Нет

Текст #4
Идентификатор : 8
Формат : ASS
Идентификатор кодека : S_TEXT/ASS
Идентификатор кодека/Информация : Advanced Sub Station Alpha
Метод сжатия : Без потерь
Заголовок : Swedish
Язык : Swedish
Default : Нет
Forced : Нет

Текст #5
Идентификатор : 9
Формат : ASS
Идентификатор кодека : S_TEXT/ASS
Идентификатор кодека/Информация : Advanced Sub Station Alpha
Метод сжатия : Без потерь
Заголовок : Portugese (BR)
Язык : Portuguese
Default : Нет
Forced : Нет

Текст #6
Идентификатор : 10
Формат : ASS
Идентификатор кодека : S_TEXT/ASS
Идентификатор кодека/Информация : Advanced Sub Station Alpha
Метод сжатия : Без потерь
Заголовок : Hungarian
Язык : Hungarian
Default : Нет
Forced : Нет

Текст #7
Идентификатор : 11
Формат : ASS
Идентификатор кодека : S_TEXT/ASS
Идентификатор кодека/Информация : Advanced Sub Station Alpha
Метод сжатия : Без потерь
Заголовок : Serbian
Язык : sam
Default : Нет
Forced : Нет

Текст #8
Идентификатор : 12
Формат : ASS
Идентификатор кодека : S_TEXT/ASS
Идентификатор кодека/Информация : Advanced Sub Station Alpha
Метод сжатия : Без потерь
Заголовок : Hebrew
Язык : Hebrew
Default : Нет
Forced : Нет


pb.wtf



Скачать В погоне за счастьем через торрент http://i59.fastpic.ru/big/2014/0310/cf/06d486d5de34e1faa2db02cee4262acf.jpg Скачать фильм В погоне за счастьем через торрент бесплантно в хорошем качестве Описание: Крис Гарднер — отец одиночка. Воспитывая пятилетнего сына, Крис изо всех сил старается сделать так, чтобы ребенок рос счастливым. ... 10 10 13
Info! Золотая раздача, скачанное не засчитывается.
Торрент: Зарегистрирован [2014-03-10 06:53] · скачан: 219 раз
Статус: √ проверено
Размер: 8.68 GB
Как cкачать? Как скачать В погоне за счастьем через торрент | qTorrent

% Раздел Тема Автор DL S | L
Фильмы 2006-2008 [ 1.46 GB ] В погоне за счастьем / The Pursuit of Happyness [2006 биография HDRip] NarutoSasuke Скачать
1 | 0
Фильмы [HD 720p, 1080p] (Хороший звук DUB, MVO) [ 4.74 GB ] В погоне за счастьем / The Pursuit of Happyness [2006 биография BDRip 720p] SibFrost Скачать
1 | 0
Фильмы 2006-2008 [ 2.1 GB ] В погоне за счастьем / The Pursuit of Happyness [2006 биография HDRip-AVC] DUB stalonе Скачать
1 | 0
Фильмы 2006-2008 [ 2.75 GB ] В погоне за счастьем / The Pursuit of Happyness [2006 биография BDRip] m9sо Скачать
2 | 0
Фильмы 2006-2008 [ 1.46 GB ] В погоне за счастьем / Pursuit of Happyness The [2006 биография ... HDRip] Venxxx Скачать
1 | 0

28-11-2019 20:33  

Отключить всю рекламу на сайте

    Дорогой пользователь! Огромная просьба, поблагодарите релизера, оцените раздачу и оставьте свои комментарий, если Вы скачали В погоне за счастьем через торрент бесплатно! Внесите свою лепту в развитие PiratBit!
    Комментировать посты могут только пользователи прошедшие не сложную регистрацию
    Показать сообщения:    

    В погоне за счастьем через торрент
    Скачать бесплатно В погоне за счастьем
    В погоне за счастьем скачать торрент
    В погоне за счастьем смотреть онлайн
    Cкачать фильм В погоне за счастьем бесплатно
    В погоне за счастьем скачать торрент в хорошем качестве
    В погоне за счастьем смотреть онлайн бесплатно в хорошем качестве


    Вы не можете начинать темы
    Вы не можете отвечать на сообщения
    Вы не можете редактировать свои сообщения
    Вы не можете удалять свои сообщения
    Вы не можете голосовать в опросах
    Вы не можете прикреплять файлы к сообщениям
    Вы можете скачивать файлы