Ссылка на приватное зеркало нашего сайта всего за 1$. Внимание количество ограничено!!!

2 сезон

iTunes

1 сезон

1

iTunes

iTunes

iTunes

1 сезон

RePack

30

ИГРА 18+

pack

ВАЖНО

!!Акция!!

Alien_RageХит недели

RePack

MK11
pack

Забери бонус

RePack

jed

!!Акция!!

Alien_Rage

RePack

fifa19

RePack

Assassins Creed: Odyssey

RePack

NEED FOR SPEED™ PAYBACK

4 сезон

9 сезон

Бесстыжие 9 сезон

Все сериалы

все сериалы на PB.wtf

RePack

FAR CRY 5
  

Жизнь короля / Life of a King (Джейк Голдбергер) [2013 г., драма, HDRip, Любительский одноголосый] pb.wtf

Жизнь короля через торрент pb.wtf

Размер: 1.46 GB | Добавлен: 6 лет 7 мес. назад | Торрент скачан:103 раза
Скачать  

10-03-2014 09:22 Жизнь короля Скачать торрент  

Жизнь короля / Life of a King
Год выпуска: 2013
Страна: США / Animus Films, Serena Films, Steakhaus Productions
Жанр: драма.
Продолжительность: 01:41:27
Перевод: Любительский одноголосый ([barin101)

Режиссер: Джейк Голдбергер



В ролях: Кьюба Гудинг мл., Деннис Хейсбёрт, Лиза Гэй Хэмилтон, Тьюрстон Хилл, Чиди Аджуфо, Рики Браун, Буда Карлтон Бёрд, Джим Кэллоуэй.

Описание: Юджин Браун только что вышел из тюрьмы, где отсидел 17 лет за вооружённое ограбление. Теперь у него мало друзей, совсем нет денег, и ему пришлось работать уборщиком в школе, в которой ученики - "просто наказание". Однажды директор попросила его подежурить в группе продлённого дня. Желая чем-нибудь занять ребят, Юджин начинает учить их игре в шахматы. Криминальная сторона жизни напоминает Юджину о себе, но он помнит, что в жизни, как и в шахматах, нужно думать, прежде чем делать ход.

Качество: HDRip
Формат: AVI
Видео кодек: XviD
Аудио кодек: AC3
Видео: 720x400 (1.80:1), 23.976 fps, XviD build 50 ~1863 kbps avg, 0.27 bit/pixel
Аудио: 48 kHz, AC3 Dolby Digital, 2/0 (L,R) ch, ~192 kbps


Общее
Полное имя : H:киноLife.of.a.King.2013.HRip.avi
Формат : AVI
Формат/Информация : Audio Video Interleave
Размер файла : 1,46 Гбайт
Продолжительность : 1 ч. 41 м.
Общий поток : 2065 Кбит/сек
Программа кодирования : VirtualDubMod 1.5.10.3 | www.virtualdub-fr.org || (build 2550/release)
Библиотека кодирования : VirtualDubMod build 2550/release

Видео
Идентификатор : 0
Формат : MPEG-4 Visual
Профиль формата : Advanced Simple@L5
Параметр BVOP формата : 2
Параметр QPel формата : Нет
Параметр GMC формата : Без точки перехода
Параметр матрицы формата : Default (H.263)
Идентификатор кодека : XVID
Идентификатор кодека/Подсказка : XviD
Продолжительность : 1 ч. 41 м.
Битрейт : 1864 Кбит/сек
Ширина : 720 пикселей
Высота : 400 пикселей
Соотношение сторон : 16:9
Частота кадров : 23,976 кадра/сек
Цветовое пространство : YUV
Субдискретизация насыщенности : 4:2:0
Битовая глубина : 8 бит
Тип развёртки : Прогрессивная
Метод сжатия : С потерями
Бит/(Пиксели*Кадры) : 0.270
Размер потока : 1,32 Гбайт (90%)
Библиотека кодирования : XviD 1.2.1 (UTC 2008-12-04)

Аудио
Идентификатор : 1
Формат : AC-3
Формат/Информация : Audio Coding 3
Расширение режима : CM (complete main)
Параметр Endianness формата : Big
Идентификатор кодека : 2000
Продолжительность : 1 ч. 41 м.
Вид битрейта : Постоянный
Битрейт : 192 Кбит/сек
Каналы : 2 канала
Расположение каналов : Front: L R
Частота : 48,0 КГц
Битовая глубина : 16 бит
Метод сжатия : С потерями
Размер потока : 139 Мбайт (9%)
Выравнивание : Разделение по промежуткам
Продолжительность промежутка : 42 мс. (1,00 видеокадр)
Время предзагрузки промежутка : 500 мс.

pb.wtf



Скачать Жизнь короля через торрент http://pic.kartinco.top/images/6/2x27y.jpg Скачать фильм Жизнь короля через торрент бесплантно в хорошем качестве Описание: Юджин Браун только что вышел из тюрьмы, где отсидел 17 лет за вооружённое ограбление. Теперь у него мало друзей, совсем нет ... 8 10 2
Торрент: Зарегистрирован [2014-03-10 09:22] · скачан: 103 раз
Статус: √ проверено
Размер: 1.46 GB
Как cкачать? Как скачать Жизнь короля через торрент | qTorrent

% Раздел Тема Автор DL S | L
T Фильмы [HD 720p, 1080p] (Хороший звук DUB, MVO) [ 5.25 GB ] Жизнь короля / Life of a King [2013 BDRip 720pЛюбительский flatro1 Скачать
1 | 0

28-11-2019 20:33  

Отключить всю рекламу на сайте

    Дорогой пользователь! Огромная просьба, поблагодарите релизера, оцените раздачу и оставьте свои комментарий, если Вы скачали Жизнь короля через торрент бесплатно! Внесите свою лепту в развитие PiratBit!
    Комментировать посты могут только пользователи прошедшие не сложную регистрацию
    Показать сообщения:    

    Жизнь короля через торрент
    Скачать бесплатно Жизнь короля
    Жизнь короля скачать торрент
    Жизнь короля смотреть онлайн
    Cкачать фильм Жизнь короля бесплатно
    Жизнь короля скачать торрент в хорошем качестве
    Жизнь короля смотреть онлайн бесплатно в хорошем качестве


    Вы не можете начинать темы
    Вы не можете отвечать на сообщения
    Вы не можете редактировать свои сообщения
    Вы не можете удалять свои сообщения
    Вы не можете голосовать в опросах
    Вы не можете прикреплять файлы к сообщениям
    Вы можете скачивать файлы