2 сезон

iTunes

1 сезон

1

iTunes

iTunes

iTunes

1 сезон

RePack

30

ИГРА 18+

pack

ВАЖНО

!!Акция!!

Alien_RageХит недели

RePack

MK11
pack

Забери бонус

RePack

jed

!!Акция!!

Alien_Rage

RePack

fifa19

RePack

Assassins Creed: Odyssey

RePack

NEED FOR SPEED™ PAYBACK

4 сезон

9 сезон

Бесстыжие 9 сезон

Все сериалы

все сериалы на PB.wtf

RePack

FAR CRY 5
  

Отец-молодец / Delivery Man (Кен Скотт / Ken Scott) [ 2013 , США , комедия, драма , BDRip720p ]DUB [iTunes Russia] +Английский pb.wtf

Отец-молодец через торрент pb.wtf

Размер: 4.7 GB | Добавлен: 6 лет 7 мес. назад | Торрент скачан:657 раз
Скачать  

11-03-2014 03:10 Отец-молодец Скачать торрент  

Отец-молодец / Delivery Man
«Тебе от 17 до 23? Ты уверен, что это не твой отец?»

Год выпуска: 2013
Страна: США
Жанр: комедия, драма
Продолжительность: 01:44:56
Перевод: Профессиональный (полное дублирование)[iTunes Russia]
Субтитры: Английские (Вшитые отключаемые)

Режиссер: Кен Скотт / Ken Scott
Сценарий: Кен Скотт / Ken Scott, Мартен Пети / Martin Petit
Продюсер: Андре Руле / André Rouleau, Рэй Анджелик / Ray Angelic, Скотт Медник / Scott Mednick, Марк Суриан / Mark Sourian
Оператор: Эрик Алан Эдвардс / Eric Alan Edwards
Композитор: Джон Брайон / Jon Brion

Винс Вон (David), Крис Прэтт (Brett), Коби Смолдерс (Emma), Анджей Блюменфельд (Mikolaj), Саймон Делани (Victor), Бобби Мойнахан (Aleksy), Дэйв Паттен (Adam), Адам Чанлер-Берат (Viggo), Бритт Робертсон (Kristen), Джек Рейнор (Josh), Амос ВандерПоэль (Taylor), Мэттью Даддарио (Channing)

Бюджет: $26 000 000
Сборы в США: $30 637 960
Сборы в России: $2 929 997
Сборы в мире: $51 137 960

Мировая премьера: 21 ноября 2013
Релиз на DVD: 25 марта 2014,«Уолт Дисней Компани СНГ»
Релиз на Blu-ray: 25 марта 2014,«Уолт Дисней Компани СНГ»

Описание:Жизнь бруклинского работяги Дэвида Возняка не похожа на праздник: у него кризис среднего возраста, он должен денег подпольному ростовщику, девушка собирается его бросить, а родной отец грозит увольнением с работы. А в довершение всех бед к нему приходит адвокат с известием о том, что в результате ошибки, которую двадцать лет назад совершили в банке спермы, который Дэвид посещал в студенческие годы, он является биологическим отцом 533 детей. И 142 из них обратились в суд с требованием раскрыть имя своего родителя. Вначале Дэвид не знает, что делать в такой ситуации, но постепенно любопытство перевешивает, и он решает - инкогнито - узнать поближе хотя бы некоторых из своих нежданных потомков...

Рейтинг
kinopoisk.ru: 6.771 (2831)
imdb.com: 6.40 (8775)
MPAA: PG-13 - Детям до 13 лет просмотр не желателен

Качество: BDRip720p
Формат: MKV
Видео кодек: AVC
Аудио кодек: AC3/DTS
Видео: 4200 Кбит/сек, 1280*532 (2,40:1), в 23,976 кадра/сек, AVC
Аудио №1: Русский 384 Кбит/сек, 48,0 КГц, 16 бит, 6 каналов, AC-3
Аудио №2: Английский 1510 Кбит/сек, 48,0 КГц, 24 бит, 6 каналов, DTS
Аудио №3: Английский 320 Кбит/сек, 48,0 КГц, 16 бит, 2 канала, AC-3 (коментарии)

Общее
Кол-во : 279
Кол-во потоков такого типа : 1
Тип потока : General
Тип потока : Общее
Идентификатор типа потока : 0
Inform : Matroska: 4,70 Гбайт, 1 ч. 44 м.
Уникальный идентификатор : 181600853513346490135796608428754890322
Уникальный идентификатор : 181600853513346490135796608428754890322 (0x889F0D5B102A98FFB4289B1E5B006E52)
Кол-во видеопотоков : 1
Кол-во аудиопотоков : 3
Кол-во текстовых потоков : 1
Кол-во потоков меню : 1
Video_Format_List : AVC
Video_Format_WithHint_List : AVC
Видеокодеки : AVC
Video_Language_List : English
Audio_Format_List : AC-3 / DTS / AC-3
Audio_Format_WithHint_List : AC-3 / DTS / AC-3
Аудиокодеки : AC3 / DTS / AC3
Audio_Language_List : Russian / English / English
Text_Format_List : UTF-8
Text_Format_WithHint_List : UTF-8
Текстовые кодеки : UTF-8
Text_Language_List : English
Полное имя : D:ФильмыОтец-молодец.mkv
Имя папки : D:Фильмы
Имя файла : Отец-молодец
Расширение : mkv
Формат : Matroska
Формат : Matroska
Формат/Ссылка : http://packs.matroska.org/
Формат/Используется в : mkv mk3d mka mks
Коммерческое название : Matroska
Версия формата : Version 2
Кодек : Matroska
Кодек : Matroska
Кодек/Ссылка : http://packs.matroska.org/
Кодек/Используется в : mkv mk3d mka mks
Размер файла : 5043643079
Размер файла : 4,70 Гбайт
Размер файла : 5 Гбайт
Размер файла : 4,7 Гбайт
Размер файла : 4,70 Гбайт
Размер файла : 4,697 Гбайт
Продолжительность : 6296171
Продолжительность : 1 ч. 44 м.
Продолжительность : 1 ч. 44 м. 56 с. 171 мс.
Продолжительность : 1 ч. 44 м.
Продолжительность : 01:44:56.171
Общий поток : 6408521
Общий поток : 6409 Кбит/сек
Размер потока : 100368480
Размер потока : 95,7 Мбайт (2%)
Размер потока : 96 Мбайт
Размер потока : 96 Мбайт
Размер потока : 95,7 Мбайт
Размер потока : 95,72 Мбайт
Размер потока : 95,7 Мбайт (2%)
Пропорции потока : 0.01990
Заголовок : Rip by CMEGRoup
Название фильма : Rip by CMEGRoup
Дата кодирования : UTC 2014-03-10 19:48:05
Дата файла : UTC 2014-03-11 01:04:02.897
Дата файла (местная) : 2014-03-11 08:04:02.897
Дата изменения файла : UTC 2014-03-11 00:49:14.502
Дата изменения файла (местная) : 2014-03-11 07:49:14.502
Программа кодирования : mkvmerge v6.7.0 ('Back to the Ground') 64bit built on Jan 8 2014 15:10:52
Библиотека кодирования : libebml v1.3.0 + libmatroska v1.4.1
Библиотека кодирования : libebml v1.3.0 + libmatroska v1.4.1

Видео
Кол-во : 248
Кол-во потоков такого типа : 1
Тип потока : Video
Тип потока : Видео
Идентификатор типа потока : 0
StreamOrder : 0
Inform : English, 4200 Кбит/сек, 1280*532 (2,40:1), в 23,976 кадра/сек, AVC (High@L4.1) (CABAC / 12 Ref Frames)
Идентификатор : 1
Идентификатор : 1
Уникальный идентификатор : 1
Формат : AVC
Формат/Информация : Advanced Video Codec
Формат/Ссылка : http://developers.videolan.org/x264.html
Коммерческое название : AVC
Профиль формата : High@L4.1
Настройки формата : CABAC / 12 Ref Frames
Параметр CABAC формата : Yes
Параметр CABAC формата : Да
Параметр ReFrames формата : 12
Параметр ReFrames формата : 12 кадров
Интернет-тип носителя : video/H264
Идентификатор кодека : V_MPEG4/ISO/AVC
Идентификатор кодека/Ссылка : http://ffdshow-tryout.sourceforge.net/
Кодек : V_MPEG4/ISO/AVC
Кодек : AVC
Кодек/Семейство : AVC
Кодек/Информация : Advanced Video Codec
Кодек/Ссылка : http://ffdshow-tryout.sourceforge.net/
Профиль кодека : High@L4.1
Настройки кодека : CABAC / 12 Ref Frames
Параметр CABAC кодека : Yes
Codec_Settings_RefFrames : 12
Продолжительность : 6296171
Продолжительность : 1 ч. 44 м.
Продолжительность : 1 ч. 44 м. 56 с. 171 мс.
Продолжительность : 1 ч. 44 м.
Продолжительность : 01:44:56.171
Битрейт : 4200000
Битрейт : 4200 Кбит/сек
Ширина : 1280
Ширина : 1280 пикселей
Высота : 532
Высота : 532 пикселя
Пропорции пикселя : 1.000
Соотношение сторон : 2.406
Соотношение сторон : 2,40:1
Режим частоты кадров : CFR
Режим частоты кадров : Постоянный
Частота кадров : 23.976
Частота кадров : 23,976 кадра/сек
Счётчик кадров : 150957
Разрешение : 8
Разрешение : 8 бит
Колориметрия : 4:2:0
Цветовое пространство : YUV
Субдискретизация насыщенности : 4:2:0
Битовая глубина : 8
Битовая глубина : 8 бит
Тип развёртки : Progressive
Тип развёртки : Прогрессивная
Переплетение : PPF
Переплетение : Прогрессивная
Бит/(Пиксели*Кадры) : 0.257
Задержка : 0
Задержка : 00:00:00.000
Задержка в оригинале : Container
Задержка в оригинале : Контейнер
Размер потока : 3201006031
Размер потока : 2,98 Гбайт (63%)
Размер потока : 3 Гбайт
Размер потока : 3,0 Гбайт
Размер потока : 2,98 Гбайт
Размер потока : 2,981 Гбайт
Размер потока : 2,98 Гбайт (63%)
Пропорции потока : 0.63466
Заголовок : CMEGRoup
Библиотека кодирования : x264 - core 138 r2358 9e941d1
Библиотека кодирования : x264 core 138 r2358 9e941d1
Библиотека кодирования/Имя : x264
Библиотека кодирования/Version : core 138 r2358 9e941d1
Настройки программы : cabac=1 / ref=12 / deblock=1:-3:-3 / analyse=0x3:0x113 / me=umh / subme=11 / psy=1 / psy_rd=1.00:0.00 / mixed_ref=1 / me_range=48 / chroma_me=1 / trellis=2 / 8x8dct=1 / cqm=0 / deadzone=21,11 / fast_pskip=1 / chroma_qp_offset=-2 / threads=6 / lookahead_threads=1 / sliced_threads=0 / nr=0 / decimate=1 / interlaced=0 / bluray_compat=0 / constrained_intra=0 / bframes=5 / b_pyramid=2 / b_adapt=1 / b_bias=0 / direct=2 / weightb=1 / open_gop=0 / weightp=2 / keyint=240 / keyint_min=23 / scenecut=40 / intra_refresh=0 / rc_lookahead=40 / rc=2pass / mbtree=1 / bitrate=4200 / ratetol=1.0 / qcomp=0.60 / qpmin=0 / qpmax=69 / qpstep=4 / cplxblur=20.0 / qblur=0.5 / vbv_maxrate=62500 / vbv_bufsize=78125 / nal_hrd=none / ip_ratio=1.40 / aq=1:1.00 / zones=144467,150743,q=40
Язык : en
Язык : English
Язык : English
Язык : en
Язык : eng
Язык : en
Default : Yes
Default : Да
Forced : No
Forced : Нет

Аудио #1
Кол-во : 236
Кол-во потоков такого типа : 3
Тип потока : Audio
Тип потока : Аудио
Идентификатор типа потока : 0
Позиция идентификатора типа потока : 1
StreamOrder : 1
Inform : Russian, 384 Кбит/сек, 48,0 КГц, 16 бит, 6 каналов, AC-3
Идентификатор : 2
Идентификатор : 2
Уникальный идентификатор : 1546226033320467587
Формат : AC-3
Формат/Информация : Audio Coding 3
Коммерческое название : AC-3
Расширение режима : CM (complete main)
Параметр Endianness формата : Big
Идентификатор кодека : A_AC3
Кодек : AC3
Кодек : AC3
Кодек/Семейство : AC3
Кодек/Информация : Dolby AC3
Продолжительность : 6296171
Продолжительность : 1 ч. 44 м.
Продолжительность : 1 ч. 44 м. 56 с. 171 мс.
Продолжительность : 1 ч. 44 м.
Продолжительность : 01:44:56.171
Вид битрейта : CBR
Вид битрейта : Постоянный
Битрейт : 384000
Битрейт : 384 Кбит/сек
Каналы : 6
Каналы : 6 каналов
Расположение каналов : Front: L C R, Side: L R, LFE
Расположение каналов : 3/2/0.1
Частота : 48000
Частота : 48,0 КГц
Количество образцов : 302216208
Разрешение : 16
Разрешение : 16 бит
Битовая глубина : 16
Битовая глубина : 16 бит
Метод сжатия : Lossy
Метод сжатия : С потерями
Задержка : 0
Задержка : 00:00:00.000
Задержка в оригинале : Container
Задержка в оригинале : Контейнер
Задержка видео : 0
Задержка видео : 0
Размер потока : 302216208
Размер потока : 288 Мбайт (6%)
Размер потока : 288 Мбайт
Размер потока : 288 Мбайт
Размер потока : 288 Мбайт
Размер потока : 288,2 Мбайт
Размер потока : 288 Мбайт (6%)
Пропорции потока : 0.05992
Язык : ru
Язык : Russian
Язык : Russian
Язык : ru
Язык : rus
Язык : ru
Default : Yes
Default : Да
Forced : No
Forced : Нет
dialnorm : -27
dialnorm/String : -27 dB
compr : -0.28
compr/String : -0.28 dB
bsid : 8
dialnorm_Average : -27
dialnorm_Average/String : -27 dB
dialnorm_Minimum : -27
dialnorm_Minimum/String : -27 dB
dialnorm_Maximum : -27
dialnorm_Maximum/String : -27 dB
dialnorm_Count : 2
compr_Average : -0.28
compr_Average/String : -0.28 dB
compr_Minimum : -0.28
compr_Minimum/String : -0.28 dB
compr_Maximum : -0.28
compr_Maximum/String : -0.28 dB
compr_Count : 2

Аудио #2
Кол-во : 217
Кол-во потоков такого типа : 3
Тип потока : Audio
Тип потока : Аудио
Идентификатор типа потока : 1
Позиция идентификатора типа потока : 2
StreamOrder : 2
Inform : English, 1510 Кбит/сек, 48,0 КГц, 24 бит, 6 каналов, DTS
Идентификатор : 3
Идентификатор : 3
Уникальный идентификатор : 3274248347999219875
Формат : DTS
Формат/Информация : Digital Theater Systems
Коммерческое название : DTS
Идентификатор кодека : A_DTS
Кодек : DTS
Кодек : DTS
Кодек/Семейство : DTS
Продолжительность : 6296171
Продолжительность : 1 ч. 44 м.
Продолжительность : 1 ч. 44 м. 56 с. 171 мс.
Продолжительность : 1 ч. 44 м.
Продолжительность : 01:44:56.171
Вид битрейта : CBR
Вид битрейта : Постоянный
Битрейт : 1509750
Битрейт : 1510 Кбит/сек
Каналы : 6
Каналы : 6 каналов
Расположение каналов : Front: L C R, Side: L R, LFE
Расположение каналов : 3/2/0.1
Частота : 48000
Частота : 48,0 КГц
Количество образцов : 302216208
Разрешение : 24
Разрешение : 24 бит
Битовая глубина : 24
Битовая глубина : 24 бит
Метод сжатия : Lossy
Метод сжатия : С потерями
Задержка : 0
Задержка : 00:00:00.000
Задержка в оригинале : Container
Задержка в оригинале : Контейнер
Задержка видео : 0
Задержка видео : 0
Размер потока : 1188205520
Размер потока : 1,11 Гбайт (24%)
Размер потока : 1 Гбайт
Размер потока : 1,1 Гбайт
Размер потока : 1,11 Гбайт
Размер потока : 1,107 Гбайт
Размер потока : 1,11 Гбайт (24%)
Пропорции потока : 0.23558
Заголовок : original 1536 kbs
Язык : en
Язык : English
Язык : English
Язык : en
Язык : eng
Язык : en
Default : No
Default : Нет
Forced : No
Forced : Нет

Аудио #3
Кол-во : 247
Кол-во потоков такого типа : 3
Тип потока : Audio
Тип потока : Аудио
Идентификатор типа потока : 2
Позиция идентификатора типа потока : 3
StreamOrder : 3
Идентификатор : 4
Идентификатор : 4
Уникальный идентификатор : 955533613932831883
Формат : AC-3
Формат/Информация : Audio Coding 3
Коммерческое название : AC-3
Профиль формата : Dolby Digital
Расширение режима : CM (complete main)
Параметр Endianness формата : Big
Идентификатор кодека : A_AC3
Кодек : AC3
Кодек : AC3
Кодек/Семейство : AC3
Кодек/Информация : Dolby AC3
Профиль кодека : Dolby Digital
Продолжительность : 6296171
Продолжительность : 1 ч. 44 м.
Продолжительность : 1 ч. 44 м. 56 с. 171 мс.
Продолжительность : 1 ч. 44 м.
Продолжительность : 01:44:56.171
Вид битрейта : CBR
Вид битрейта : Постоянный
Битрейт : 320000
Битрейт : 320 Кбит/сек
Каналы : 2
Каналы : 2 канала
Расположение каналов : Front: L R
Расположение каналов : 2/0/0
Частота : 48000
Частота : 48,0 КГц
Количество образцов : 302216208
Разрешение : 16
Разрешение : 16 бит
Битовая глубина : 16
Битовая глубина : 16 бит
Метод сжатия : Lossy
Метод сжатия : С потерями
Задержка : 0
Задержка : 00:00:00.000
Задержка в оригинале : Container
Задержка в оригинале : Контейнер
Задержка видео : 0
Задержка видео : 0
Размер потока : 251846840
Размер потока : 240 Мбайт (5%)
Размер потока : 240 Мбайт
Размер потока : 240 Мбайт
Размер потока : 240 Мбайт
Размер потока : 240,2 Мбайт
Размер потока : 240 Мбайт (5%)
Пропорции потока : 0.04993
Заголовок : Commentary
Язык : en
Язык : English
Язык : English
Язык : en
Язык : eng
Язык : en
Default : No
Default : Нет
Forced : No
Forced : Нет
dsurmod : 2
dsurmod/String : Dolby Surround encoded
dialnorm : -31
dialnorm/String : -31 dB
compr : 2.77
compr/String : 2.77 dB
dynrng : 2.77
dynrng/String : 2.77 dB
bsid : 6
dialnorm_Average : -31
dialnorm_Average/String : -31 dB
dialnorm_Minimum : -31
dialnorm_Minimum/String : -31 dB
dialnorm_Maximum : -31
dialnorm_Maximum/String : -31 dB
dialnorm_Count : 2
compr_Average : 2.77
compr_Average/String : 2.77 dB
compr_Minimum : 2.77
compr_Minimum/String : 2.77 dB
compr_Maximum : 2.77
compr_Maximum/String : 2.77 dB
compr_Count : 2
dynrng_Average : 2.86
dynrng_Average/String : 2.86 dB
dynrng_Minimum : 2.77
dynrng_Minimum/String : 2.77 dB
dynrng_Maximum : 2.96
dynrng_Maximum/String : 2.96 dB
dynrng_Count : 2

Текст
Кол-во : 192
Кол-во потоков такого типа : 1
Тип потока : Text
Тип потока : Текст
Идентификатор типа потока : 0
StreamOrder : 4
Inform : English, UTF-8
Идентификатор : 5
Идентификатор : 5
Уникальный идентификатор : 5215803045627659660
Формат : UTF-8
Коммерческое название : UTF-8
Идентификатор кодека : S_TEXT/UTF8
Идентификатор кодека/Информация : UTF-8 Plain Text
Кодек : S_TEXT/UTF8
Кодек : UTF-8
Кодек/Информация : UTF-8 Plain Text
Язык : en
Язык : English
Язык : English
Язык : en
Язык : eng
Язык : en
Default : No
Default : Нет
Forced : No
Forced : Нет

Меню
Кол-во : 91
Кол-во потоков такого типа : 1
Тип потока : Menu
Тип потока : Меню
Идентификатор типа потока : 0
Chapters_Pos_Begin : 73
Chapters_Pos_End : 91
00:00:00.000 : en:00:00:00.000
00:04:12.335 : en:00:04:12.335
00:10:42.392 : en:00:10:42.392
00:15:03.861 : en:00:15:03.861
00:21:04.054 : en:00:21:04.054
00:27:42.494 : en:00:27:42.494
00:35:00.557 : en:00:35:00.557
00:40:03.401 : en:00:40:03.401
00:45:06.287 : en:00:45:06.287
00:51:59.116 : en:00:51:59.116
00:58:35.011 : en:00:58:35.011
01:04:47.217 : en:01:04:47.217
01:07:59.325 : en:01:07:59.325
01:15:05.126 : en:01:15:05.126
01:20:11.223 : en:01:20:11.223
01:24:59.678 : en:01:24:59.678
01:30:48.318 : en:01:30:48.318
01:39:56.490 : en:01:39:56.490


скриншот   скриншот   скриншот   скриншот   скриншот   скриншот   скриншот   скриншот  



pb.wtf



Скачать Отец-молодец через торрент http://pic.kartinco.top/images/6/pe23t.jpg Скачать фильм Отец-молодец через торрент бесплантно в хорошем качестве Описание:Жизнь бруклинского работяги Дэвида Возняка не похожа на праздник: у него кризис среднего возраста, он должен денег подпольному ... 9.9 10 14
Торрент: Зарегистрирован [2014-03-11 03:10] · скачан: 657 раз
Статус: √ проверено
Размер: 4.7 GB
Как cкачать? Как скачать Отец-молодец через торрент | qTorrent



Последний раз редактировалось: GEKADOL (2014-04-11 03:45), всего редактировалось 1 раз

28-11-2019 20:33  

Отключить всю рекламу на сайте

11-03-2014 04:03 Отец-молодец Скачать торрент  

Минут через 30 подкину скорости! pb.wtf



11-03-2014 07:23 Отец-молодец Скачать торрент  

и снова америкосы ремейк штампанули sarcastic После оригинального французского в этом уже смешного ничего не увиделpb.wtf



    Дорогой пользователь! Огромная просьба, поблагодарите релизера, оцените раздачу и оставьте свои комментарий, если Вы скачали Отец-молодец через торрент бесплатно! Внесите свою лепту в развитие PiratBit!
    Комментировать посты могут только пользователи прошедшие не сложную регистрацию
    Показать сообщения:    

    Отец-молодец через торрент
    Скачать бесплатно Отец-молодец
    Отец-молодец скачать торрент
    Отец-молодец смотреть онлайн
    Cкачать фильм Отец-молодец бесплатно
    Отец-молодец скачать торрент в хорошем качестве
    Отец-молодец смотреть онлайн бесплатно в хорошем качестве


    Вы не можете начинать темы
    Вы не можете отвечать на сообщения
    Вы не можете редактировать свои сообщения
    Вы не можете удалять свои сообщения
    Вы не можете голосовать в опросах
    Вы не можете прикреплять файлы к сообщениям
    Вы можете скачивать файлы