Death Stranding+DLC+АВТОАКТИВАЦИЯ

iTunes

iTunes

iTunes

1

iTunes

iTunes

iTunes

iTunes

iTunes

30
pack

$ от Little Big

ВАЖНО

!!Акция!!

Alien_RageХит недели

RePack

Resident Evil 21

ИГРА 18+

pack

RePack

jed

!!Акция!!

Alien_Rage

RePack

fifa19

RePack

Assassins Creed: Odyssey

RePack

NEED FOR SPEED™ PAYBACK

4 сезон

9 сезон

Бесстыжие 9 сезон

Все сериалы

все сериалы на PB.wtf

RePack

FAR CRY 5
  

Перекрестный огонь / Bad Country (Крис Бринкер / Chris Brinker) [2014 г., боевик, триллер, драма, криминал, детектив, WEB-DL 720p] MVO pb.wtf

Перекрестный огонь через торрент pb.wtf

Размер: 3.61 GB | Добавлен: 6 лет 4 мес. назад | Торрент скачан:407 раз
Скачать  

11-03-2014 11:04 Перекрестный огонь Скачать торрент  

Перекрестный огонь / Bad Country
Год выпуска: 2014
Страна: США
Жанр: боевик, триллер, драма, криминал, детектив
Продолжительность: 01:44:21

  • Перевод: Профессиональный (Многоголосый закадровый, R2);
  • Русские субтитры: нет
  • Оригинальная аудиодорожка: Английская

Режиссер: Крис Бринкер / Chris Brinker
В ролях: Эми Смарт, Нил МакДонаф, Уиллем Дефо, Мэтт Диллон, Билл Дьюк, Том Беренджер, Дж.Д. Эвермор, Крис Маркетт, Кевин Чэпмен, Кристофер Денэм
Описание: Фильм снят по реальным событиям. Расследование детектива Бада Картера приводит к аресту Джесси Вейланда, наемного убийцы из преступного синдиката. Вейланд осознает, что попав в тюрьму, он потеряет свою семью, и решает довериться Картеру, став его информатором.

    Тип релиза: WEB-DL 720p
  • Контейнер: MKV
  • Видео кодек: H.264 | Аудио кодек: AC-3
  • Видео: 1280x716 at 23.976 fps, 4000Kbps
  • Аудио 1: Russian: 48 kHz, AC3, 3/2 (L,C,R,l,r) + LFE ch, ~384.00 kbps avg
  • Аудио 2: English: 48 kHz, AC3, 3/2 (L,C,R,l,r) + LFE ch, ~384.00 kbps avg
  • Субтитры: Ukrainian, English
  • Чаптеры: 16шт.


Общее
Полное имя : D:torrenttorBad.Country.2014.720p.WEB-DL.Rus.Eng.mkv
Формат : Matroska
Версия формата : Version 4 / Version 2
Размер файла : 3,61 Гбайт
Продолжительность : 1 ч. 44 м.
Общий поток : 4947 Кбит/сек
Дата кодирования : UTC 2014-03-11 00:52:53
Программа кодирования : mkvmerge v6.8.0 ('Theme for Great Cities') 64bit built on Mar 2 2014 21:34:26
Библиотека кодирования : libebml v1.3.0 + libmatroska v1.4.1
Attachment : Yes

Видео
Идентификатор : 1
Формат : AVC
Формат/Информация : Advanced Video Codec
Профиль формата : High@L3.1
Параметр CABAC формата : Нет
Параметр ReFrames формата : 2 кадра
Параметр GOP формата : N=1
Идентификатор кодека : V_MPEG4/ISO/AVC
Продолжительность : 1 ч. 44 м.
Битрейт : 4080 Кбит/сек
Ширина : 1280 пикселей
Высота : 716 пикселей
Соотношение сторон : 16:9
Режим частоты кадров : Постоянный
Частота кадров : 23,976 кадра/сек
Цветовое пространство : YUV
Субдискретизация насыщенности : 4:2:0
Битовая глубина : 8 бит
Тип развёртки : Прогрессивная
Бит/(Пиксели*Кадры) : 0.186
Размер потока : 2,97 Гбайт (82%)
Язык : English
Default : Да
Forced : Нет
Основные цвета : BT.709
Характеристики трансфера : BT.709
Коэффициенты матрицы : BT.709

Аудио #1
Идентификатор : 2
Формат : AC-3
Формат/Информация : Audio Coding 3
Расширение режима : CM (complete main)
Параметр Endianness формата : Big
Идентификатор кодека : A_AC3
Продолжительность : 1 ч. 44 м.
Вид битрейта : Постоянный
Битрейт : 384 Кбит/сек
Каналы : 6 каналов
Расположение каналов : Front: L C R, Side: L R, LFE
Частота : 48,0 КГц
Битовая глубина : 16 бит
Метод сжатия : С потерями
Размер потока : 287 Мбайт (8%)
Заголовок : MVO
Язык : Russian
Default : Да
Forced : Нет

Аудио #2
Идентификатор : 3
Формат : AC-3
Формат/Информация : Audio Coding 3
Расширение режима : CM (complete main)
Параметр Endianness формата : Big
Идентификатор кодека : A_AC3
Продолжительность : 1 ч. 44 м.
Вид битрейта : Постоянный
Битрейт : 384 Кбит/сек
Каналы : 6 каналов
Расположение каналов : Front: L C R, Side: L R, LFE
Частота : 48,0 КГц
Битовая глубина : 16 бит
Метод сжатия : С потерями
Размер потока : 287 Мбайт (8%)
Язык : English
Default : Нет
Forced : Нет

Текст #1
Идентификатор : 4
Формат : UTF-8
Идентификатор кодека : S_TEXT/UTF8
Идентификатор кодека/Информация : UTF-8 Plain Text
Язык : Ukrainian
Default : Нет
Forced : Нет

Текст #2
Идентификатор : 5
Формат : UTF-8
Идентификатор кодека : S_TEXT/UTF8
Идентификатор кодека/Информация : UTF-8 Plain Text
Язык : English
Default : Нет
Forced : Нет

Меню
00:00:00.000 : en:Chapter 1
00:07:07.135 : en:Chapter 2
00:12:22.408 : en:Chapter 3
00:17:24.961 : en:Chapter 4
00:25:56.722 : en:Chapter 5
00:30:54.978 : en:Chapter 6
00:39:19.565 : en:Chapter 7
00:46:27.201 : en:Chapter 8
00:53:09.478 : en:Chapter 9
00:58:36.721 : en:Chapter 10
01:02:18.068 : en:Chapter 11
01:09:39.509 : en:Chapter 12
01:16:08.689 : en:Chapter 13
01:21:40.020 : en:Chapter 14
01:27:54.728 : en:Chapter 15
01:35:37.774 : en:Chapter 16


pb.wtf



Скачать Перекрестный огонь через торрент http://i33.fastpic.ru/big/2014/0311/b7/c34c9eb142c16646d72401c52f65fab7.jpg Скачать фильм Перекрестный огонь через торрент бесплантно в хорошем качестве Описание: Фильм снят по реальным событиям. Расследование детектива Бада Картера приводит к аресту Джесси Вейланда, наемного убийцы из ... 9.9 10 9
Info! Золотая раздача, скачанное не засчитывается.
Торрент: Зарегистрирован [2014-03-11 11:04] · скачан: 407 раз
Статус: √ проверено
Размер: 3.61 GB
Как cкачать? Как скачать Перекрестный огонь через торрент | qTorrent

% Раздел Тема Автор DL S | L
Фильмы 2014 [DVDrip, WEB-DLRip, HDrip] [ 1.46 GB ] Перекрестный огонь / Bad Country [ 2014 DVDRip ]MVO [лицензия] GEKADOL Скачать
1 | 0
Фильмы (Blu-ray, BD-Remux, HDDVD) [ 22.19 GB ] Перекрестный огонь / Bad Country [2014 BDRemux 1080p] MVO () Ворон Скачать
1 | 0

28-11-2019 20:33  

Отключить всю рекламу на сайте

11-03-2014 11:29 Перекрестный огонь Скачать торрент  

Все замечательно, но где скорость?pb.wtf



11-03-2014 12:54 Перекрестный огонь Скачать торрент  

щас будет . качаюpb.wtf



    Дорогой пользователь! Огромная просьба, поблагодарите релизера, оцените раздачу и оставьте свои комментарий, если Вы скачали Перекрестный огонь через торрент бесплатно! Внесите свою лепту в развитие PiratBit!
    Комментировать посты могут только пользователи прошедшие не сложную регистрацию
    Показать сообщения:    

    Перекрестный огонь через торрент
    Скачать бесплатно Перекрестный огонь
    Перекрестный огонь скачать торрент
    Перекрестный огонь смотреть онлайн
    Cкачать фильм Перекрестный огонь бесплатно
    Перекрестный огонь скачать торрент в хорошем качестве
    Перекрестный огонь смотреть онлайн бесплатно в хорошем качестве


    Вы не можете начинать темы
    Вы не можете отвечать на сообщения
    Вы не можете редактировать свои сообщения
    Вы не можете удалять свои сообщения
    Вы не можете голосовать в опросах
    Вы не можете прикреплять файлы к сообщениям
    Вы можете скачивать файлы