Ссылка на приватное зеркало всего за 1$. Внимание количество ограничено!!!

iTunes

iTunes

iTunes

1

iTunes

iTunes

iTunes

iTunes

iTunes

30
pack

$ от Little Big

ВАЖНО

!!Акция!!

Alien_RageХит недели

RePack

Resident Evil 21

ИГРА 18+

pack

RePack

jed

!!Акция!!

Alien_Rage

RePack

fifa19

RePack

Assassins Creed: Odyssey

RePack

NEED FOR SPEED™ PAYBACK

4 сезон

9 сезон

Бесстыжие 9 сезон

Все сериалы

все сериалы на PB.wtf

RePack

FAR CRY 5
  

Рыцари королевства Крутизны / Knights of Badassdom (Джо Линч) [2013 г., комедия, фэнтези, ужасы, WEB-DL 720p, Любительский многоголосый] pb.wtf

Рыцари королевства Крутизны через торрент pb.wtf

Размер: 2.87 GB | Добавлен: 6 лет 3 мес. назад | Торрент скачан:126 раз
Скачать  

11-03-2014 17:13 Рыцари королевства Крутизны Скачать торрент  

Рыцари королевства Крутизны / Knights of Badassdom
Год выпуска: 2013
Страна: США
Жанр: комедия, фэнтези, ужасы,
Продолжительность: 01:25:43
Перевод: Любительский многоголосый
Субтитры: Русские Kintar & Co, английские

Режиссер: Джо Линч
Продюссер: Марк Бертон, Кевин Дрейфусс, Мэтт Уолл
Сценарий: Кевин Дрейфусс, Мэтт Уолл

Премьера в мире: 25 сентября 2013

Рейтинг MPAA: R
IMDb: 6.20 (6260)

В ролях: Райан Квантен, Стив Зан, Питер Динклэйдж, Саммер Глау, Маргарита Левиева, Том Хоппер, Джимми Симпсон, Дэнни Пуди, Джошуа Малина, У. Эрл Браун,

Описание: Большая группа увлеченных костюмированных ролевиков, разодетая в рыцарей, эльфов и других персонажей, отключает свои мобильники и направляется в леса Нью-Джерси в Сообщество рыцарей Badassdom, где они собираются воспроизвести сценарий подземелий и драконов (dungeons and dragons) прямиком из мифического средневековья.

Качество: WEB-DL 720p
Формат: MKV
Видео кодек: AVC
Аудио кодек: AC3
Видео: 1280x532, 23.976 fps, ~3 932 kbps avg, 0.241 bit/pixel
Аудио #1: [RUS] 48 kHz, AC3 Dolby Digital, 3/2 (L,C,R,l,r) + LFE ch, ~384 kbps
Аудио #2: [ENG] 48 kHz, AC3 Dolby Digital, 3/2 (L,C,R,l,r) + LFE ch, ~384 kbps
скриншот   скриншот   скриншот   скриншот   скриншот   скриншот   скриншот   скриншот  

Knights of Badassdom.mkv
General
Unique ID : 173949532053947019714083460057540278270 (0x82DD76151A006B04A1E7FD90E86737FE)
Complete name : E:DownloadsKnights of Badassdom.mkv
Format : Matroska
Format version : Version 4 / Version 2
File size : 2.87 GiB
Duration : 1h 25mn
Overall bit rate : 4 788 Kbps
Encoded date : UTC 2014-03-11 11:52:06
Writing application : mkvmerge v6.8.0 ('Theme for Great Cities') 32bit built on Mar 2 2014 21:27:07
Writing library : libebml v1.3.0 + libmatroska v1.4.1
Video #1
ID : 1
Format : AVC
Format/Info : Advanced Video Codec
Format profile : Main@L3.1
Format settings, CABAC : No
Format settings, ReFrames : 2 frames
Codec ID : V_MPEG4/ISO/AVC
Duration : 1h 25mn
Bit rate : 3 924 Kbps
Width : 1 280 pixels
Height : 532 pixels
Display aspect ratio : 2.40:1
Frame rate : 23.976 fps
Color space : YUV
Chroma subsampling : 4:2:0
Bit depth : 8 bits
Scan type : Progressive
Bits/(Pixel*Frame) : 0.240
Stream size : 2.35 GiB (82%)
Language : English
Default : Yes
Forced : No
Color primaries : BT.709-5, BT.1361, IEC 61966-2-4, SMPTE RP177
Transfer characteristics : BT.709-5, BT.1361
Matrix coefficients : BT.709-5, BT.1361, IEC 61966-2-4 709, SMPTE RP177
Audio #2
ID : 2
Format : AC-3
Format/Info : Audio Coding 3
Mode extension : CM (complete main)
Format settings, Endianness : Big
Codec ID : A_AC3
Duration : 1h 25mn
Bit rate mode : Constant
Bit rate : 384 Kbps
Channel(s) : 6 channels
Channel positions : Front: L C R, Side: L R, LFE
Sampling rate : 48.0 KHz
Bit depth : 16 bits
Compression mode : Lossy
Stream size : 235 MiB (8%)
Title : MVO [ViruseProject]
Language : Russian
Default : Yes
Forced : No
Audio #3
ID : 3
Format : AC-3
Format/Info : Audio Coding 3
Mode extension : CM (complete main)
Format settings, Endianness : Big
Codec ID : A_AC3
Duration : 1h 25mn
Bit rate mode : Constant
Bit rate : 384 Kbps
Channel(s) : 6 channels
Channel positions : Front: L C R, Side: L R, LFE
Sampling rate : 48.0 KHz
Bit depth : 16 bits
Compression mode : Lossy
Stream size : 235 MiB (8%)
Title : ENG
Language : English
Default : No
Forced : No
Text #4
ID : 4
Format : UTF-8
Codec ID : S_TEXT/UTF8
Codec ID/Info : UTF-8 Plain Text
Title : Rus Sub [Kintar & Co]
Language : Russian
Default : No
Forced : No
Text #5
ID : 5
Format : UTF-8
Codec ID : S_TEXT/UTF8
Codec ID/Info : UTF-8 Plain Text
Title : Eng Sub
Language : English
Default : No
Forced : No

pb.wtf



Скачать Рыцари королевства Крутизны через торрент http://pic.kartinco.top/images/6/2mvuy.jpg Скачать фильм Рыцари королевства Крутизны через торрент бесплантно в хорошем качестве Описание: Большая группа увлеченных костюмированных ролевиков, разодетая в рыцарей, эльфов и других персонажей, отключает свои мобильники и ... 8.8 10 8
Торрент: Зарегистрирован [2014-03-11 17:13] · скачан: 126 раз
Статус: T временная
Размер: 2.87 GB
Как cкачать? Как скачать Рыцари королевства Крутизны через торрент | qTorrent

% Раздел Тема Автор DL S | L
T Фильмы 2013 (Звук TS, Cam, VO, DVO) [ 705 MB ] Рыцари королевства Крутизны / Knights of Badassdom [2013 WEB-DLRip Любительский многоголосый][ViruseProject] Cталин Скачать
1 | 0

28-11-2019 20:33  

Отключить всю рекламу на сайте

    Дорогой пользователь! Огромная просьба, поблагодарите релизера, оцените раздачу и оставьте свои комментарий, если Вы скачали Рыцари королевства Крутизны через торрент бесплатно! Внесите свою лепту в развитие PiratBit!
    Комментировать посты могут только пользователи прошедшие не сложную регистрацию
    Показать сообщения:    

    Рыцари королевства Крутизны через торрент
    Скачать бесплатно Рыцари королевства Крутизны
    Рыцари королевства Крутизны скачать торрент
    Рыцари королевства Крутизны смотреть онлайн
    Cкачать фильм Рыцари королевства Крутизны бесплатно
    Рыцари королевства Крутизны скачать торрент в хорошем качестве
    Рыцари королевства Крутизны смотреть онлайн бесплатно в хорошем качестве


    Вы не можете начинать темы
    Вы не можете отвечать на сообщения
    Вы не можете редактировать свои сообщения
    Вы не можете удалять свои сообщения
    Вы не можете голосовать в опросах
    Вы не можете прикреплять файлы к сообщениям
    Вы можете скачивать файлы