новый адрес пиратбит piratbit
Мега распродажа FORZA HORIZON 4 ULTIMATE+ВСЕ DLC+ОНЛАЙН всего за 499р. 349 руб. (супер цена). Внимание количество ограничено!!!

iTunes

1+1

iTunes

мы

iTunes

1

iTunes

Чернобыль

iTunes

Ральф против интернета

Лицензия

ПШазам

Лицензия

Игра престолов

Лицензия

30
pack

ВАЖНО

!!Акция!!

Alien_RageХит недели

RePack

Resident Evil 21

ИГРА 18+

pack

RePack

Metro:Exodus

!!Акция!!

Alien_Rage

RePack

fifa19

RePack

Assassins Creed: Odyssey

RePack

NEED FOR SPEED™ PAYBACK

3 сезон

9 сезон

Бесстыжие 9 сезон

Все сериалы

все сериалы на PB.wtf

RePack

FAR CRY 5
Ребята, катастрофически не хватает 1900р. для оплаты серверов за Октябрь (всвязи с блокировками трафик упал в 3 раза), 1-2р., выручайте.
  

Зловещие мертвецы 2 / Evil Dead II (Сэм Рэйми / Sam Raimi) [1987, США, ужасы, фэнтези, HDRip] MVO pb.wtf

Зловещие мертвецы 2 через торрент pb.wtf

Качают: 1 [ 0 KB/s ]
Размер: 1.46 GB | Добавлен: 5 лет 8 мес. назад | Торрент скачан:255 раз
Скачать  

12-03-2014 11:55 Зловещие мертвецы 2 Скачать торрент  

Зловещие мертвецы 2 / Evil Dead II
Страна: США
Студия: De Laurentiis Entertainment Group (DEG), Renaissance Pictures
Жанр: ужасы, фэнтези
Год выпуска: 1987
Продолжительность: 01:24:16
Перевод: Профессиональный (многоголосый закадровый)
Cубтитры: нет
Оригинальная аудиодорожка: нет

Режиссер: Сэм Рэйми / Sam Raimi

В ролях: Брюс Кэмпбелл, Сара Берри, Дэн Хикс, Кэсси ДеПайва, Тед Рэйми, Дениз Бикслер, Ричард Домайер, Джон Пикс, Лу Хэнкок, Сноуи Уинтерс

Описание: Эш возвращается в дом в лесу. Его подружка одержима демонами и больше не принадлежит себе. Эш в одиночку вынужден опять сражаться со злом.


Качество видео: HDRip [Исходник BDRip 1080p]
Формат видео: AVI
Видео кодек: XviD
Аудио кодек: AC3
Видео: 704x384 (1.83:1), 23.976 fps, XviD build 73 ~2080 kbps avg, 0.32 bit/pixel
Аудио: 48 kHz, AC3 Dolby Digital, 3/2 (L,C,R,l,r) + LFE ch, ~384 kbps
Раздача от:
D:Мои рипыEvil.Dead.2.1987.hdrip.dexter_lex.avi
General
Complete name : D:Мои рипыEvil.Dead.2.1987.hdrip.dexter_lex.avi
Format : AVI
Format/Info : Audio Video Interleave
File size : 1.46 GiB
Duration : 1h 24mn
Overall bit rate : 2 474 Kbps
Writing application : VirtualDubMod 1.5.10.3 | www.virtualdub-fr.org || (build 2550/release)
Writing library : VirtualDubMod build 2550/release
Video #0
ID : 0
Format : MPEG-4 Visual
Format profile : Advanced Simple@L5
Format settings, BVOP : 1
Format settings, QPel : No
Format settings, GMC : No warppoints
Format settings, Matrix : Custom
Codec ID : XVID
Codec ID/Hint : XviD
Duration : 1h 24mn
Bit rate : 2 081 Kbps
Width : 704 pixels
Height : 384 pixels
Display aspect ratio : 16:9
Frame rate : 23.976 fps
Color space : YUV
Chroma subsampling : 4:2:0
Bit depth : 8 bits
Scan type : Progressive
Compression mode : Lossy
Bits/(Pixel*Frame) : 0.321
Stream size : 1.22 GiB (84%)
Writing library : XviD 73
Audio #1
ID : 1
Format : AC-3
Format/Info : Audio Coding 3
Mode extension : CM (complete main)
Codec ID : 2000
Duration : 1h 24mn
Bit rate mode : Constant
Bit rate : 384 Kbps
Channel(s) : 6 channels
Channel positions : Front: L C R, Side: L R, LFE
Sampling rate : 48.0 KHz
Bit depth : 16 bits
Compression mode : Lossy
Stream size : 231 MiB (16%)
Alignment : Split accross interleaves
Interleave, duration : 42 ms (1.00 video frame)
Interleave, preload duration : 500 ms
pb.wtf



Скачать Зловещие мертвецы 2 через торрент http://i58.fastpic.ru/big/2014/0312/6c/090f62dd169c1328eec649bfac324f6c.jpg Скачать фильм Зловещие мертвецы 2 через торрент бесплантно в хорошем качестве Описание: Эш возвращается в дом в лесу. Его подружка одержима демонами и больше не принадлежит себе. Эш в одиночку вынужден опять сражаться ... 10 10 12
Info! Золотая раздача, скачанное не засчитывается.
Торрент: Зарегистрирован [2014-03-12 11:55] · скачан: 255 раз
Статус: √ проверено
Размер: 1.46 GB
Как cкачать? Как скачать Зловещие мертвецы 2 через торрент | qTorrent

% Раздел Тема Автор DL S | L
Ultra HD (UHD: 2K, 4K, 8K) — видео сверхвысокой чёткости [ 45.74 GB ] Зловещие мертвецы 2 / Evil Dead II [1987 UHD BDRemux 2160p] 2xMVO + DVO + 6xAVO + VO sheker187 Скачать
1 | 0
Фильмы до 2000 г. [ 745 MB ] Зловещие мертвецы 2 / Evil Dead II [1987 HDRip-AVC] MVO + Subs dexter lex Скачать
1 | 0


>> Регистрируемся здесь <<






Отзывы и комментарии о схеме читаем и пишем здесь: ---> Отзывы и комментарии о схеме

Новые благодарочки в телеграм довольных пользователей:
скриншот   скриншот   скриншот   скриншот   скриншот

24-11-2015 09:03 Зловещие мертвецы 2 Скачать торрент  

Отличный фильм! всем советую)pb.wtf



    Дорогой пользователь! Огромная просьба, поблагодарите релизера, оцените раздачу и оставьте свои комментарий, если Вы скачали Зловещие мертвецы 2 через торрент бесплатно! Внесите свою лепту в развитие PiratBit!
    Комментировать посты могут только пользователи прошедшие не сложную регистрацию
    Показать сообщения:    

    Зловещие мертвецы 2 через торрент
    Скачать бесплатно Зловещие мертвецы 2
    Зловещие мертвецы 2 скачать торрент
    Зловещие мертвецы 2 смотреть онлайн
    Cкачать фильм Зловещие мертвецы 2 бесплатно
    Зловещие мертвецы 2 скачать торрент в хорошем качестве
    Зловещие мертвецы 2 смотреть онлайн бесплатно в хорошем качестве


    Вы не можете начинать темы
    Вы не можете отвечать на сообщения
    Вы не можете редактировать свои сообщения
    Вы не можете удалять свои сообщения
    Вы не можете голосовать в опросах
    Вы не можете прикреплять файлы к сообщениям
    Вы можете скачивать файлы