1 сезон

1 сезон

iTunes

1

КиноПоиск HD

Кинопоиск HD

iTunes

13

1 сезон

RePack

30

Новинка

ВАЖНО

ИГРА 18+

pack

RePack

MK11
pack

Легкие деньги

RePack

jed

RePack

fifa19

RePack

RDR2

RePack

NEED FOR SPEED™ PAYBACK

4 сезон

9 сезон

Бесстыжие 9 сезон

Все сериалы

все сериалы на PB.wtf

RePack

FAR CRY 5
  
Magnet ссылка

Все о Бенджаминах / All About the Benjamins (Кевин Брэй / Kevin Bray) [2002, Боевик, комедия, WEB-DLRip] [MVO] pb.wtf

Все о Бенджаминах через торрент pb.wtf

Размер: 1.46 GB | Добавлен: 7 лет 1 мес. назад | Торрент скачан:27 раз
Скачать  

12-03-2014 14:45 Все о Бенджаминах Скачать торрент  

Все о Бенджаминах / All About the Benjamins«Money brought them together, but millions can't make them friends»

Год выпуска: 2002
Страна: США, Германия
Жанр: Боевик, комедия
Продолжительность: 01:37:38
Перевод: Профессиональный (многоголосый закадровый)
Cубтитры: нет
Режиссер: Кевин Брэй / Kevin Bray
В ролях: Айс Кьюб, Майк Эппс, Томми Флэнаган, Кармен Чаплин, Ева Мендес, Валери Рэй Миллер, Энтони Джиаймо, Джефф Чейз, Роджер Гуэнвёр Смит, Джино Сальвано
Описание: Айс Кьюб и Майк Эппс — герои захватывающего комедийного боевика. Один — профессиональный «охотник за головами», другой — никудышный мошенник. Ну а если добавить в этот коктейль неудачную кражу бриллиантов и потерю выигрышного лотерейного билета, то вам станет ясно «Все о Бенджаминах».

IMDB | КиноПоиск
Тип релиза: WEB-DLRip [исх. WEB-DL 720p]
Формат: AVI
Видео кодек: XviD
Аудио кодек: AC3
Видео: 704x288 (2.44:1), 23.976 fps, XviD build 50, 1753 kbps avg, 0.36 bit/pixel
Аудио: 48 kHz, AC3 Dolby Digital, 3/2 (L,C,R,l,r) + LFE ch, 384.00 kbps avg [Russian_MVO]
General
Complete name : E:All About the Benjamins_WEB-DLRip.avi
Format : AVI
Format/Info : Audio Video Interleave
File size : 1.46 GiB
Duration : 1h 37mn
Overall bit rate : 2 147 Kbps
Writing application : VirtualDubMod 1.5.10.3
Writing library : VirtualDubMod build 2550/release

Video
ID : 0
Format : MPEG-4 Visual
Format profile : Advanced Simple@L5
Format settings, BVOP : Yes
Format settings, QPel : No
Format settings, GMC : No warppoints
Format settings, Matrix : Custom
Codec ID : XVID
Codec ID/Hint : XviD
Duration : 1h 37mn
Bit rate : 1 754 Kbps
Width : 704 pixels
Height : 288 pixels
Display aspect ratio : 2.40:1
Frame rate : 23.976 fps
Color space : YUV
Chroma subsampling : 4:2:0
Bit depth : 8 bits
Scan type : Progressive
Compression mode : Lossy
Bits/(Pixel*Frame) : 0.361
Stream size : 1.20 GiB (82%)
Writing library : XviD 1.2.1 (UTC 2008-12-04)

Audio
ID : 1
Format : AC-3
Format/Info : Audio Coding 3
Mode extension : CM (complete main)
Codec ID : 2000
Duration : 1h 37mn
Bit rate mode : Constant
Bit rate : 384 Kbps
Channel(s) : 6 channels
Channel positions : Front: L C R, Side: L R, LFE
Sampling rate : 48.0 KHz
Bit depth : 16 bits
Compression mode : Lossy
Stream size : 268 MiB (18%)
Alignment : Split accross interleaves
Interleave, duration : 42 ms (1.00 video frame)
Interleave, preload duration : 500 ms
pb.wtf



Скачать Все о Бенджаминах через торрент http://i57.fastpic.ru/big/2014/0312/ef/0d59b14f174c442bb77bfb068002f6ef.jpg Скачать фильм Все о Бенджаминах через торрент бесплантно в хорошем качестве Описание: Айс Кьюб и Майк Эппс — герои захватывающего комедийного боевика. Один — «охотник за головами», другой — ... 10 10 5
Info! Золотая раздача, скачанное не засчитывается.
Торрент: Зарегистрирован [2014-03-12 14:45] · скачан: 27 раз
Статус: √ проверено
Размер: 1.46 GB
Как cкачать? Как скачать Все о Бенджаминах через торрент | UTorrent

28-11-2019 20:33  

Отключить всю рекламу на сайте

    Дорогой пользователь! Огромная просьба, поблагодарите релизера, оцените раздачу и оставьте свои комментарий, если Вы скачали Все о Бенджаминах через торрент бесплатно! Внесите свою лепту в развитие PiratBit!
    Комментировать посты могут только пользователи прошедшие не сложную регистрацию
    Показать сообщения:    

    Все о Бенджаминах через торрент
    Скачать бесплатно Все о Бенджаминах
    Все о Бенджаминах скачать торрент
    Все о Бенджаминах смотреть онлайн
    Cкачать фильм Все о Бенджаминах бесплатно
    Все о Бенджаминах скачать торрент в хорошем качестве
    Все о Бенджаминах смотреть онлайн бесплатно в хорошем качестве


    Вы не можете начинать темы
    Вы не можете отвечать на сообщения
    Вы не можете редактировать свои сообщения
    Вы не можете удалять свои сообщения
    Вы не можете голосовать в опросах
    Вы не можете прикреплять файлы к сообщениям
    Вы можете скачивать файлы