Ссылка на приватное зеркало нашего сайта всего за 1$. Внимание количество ограничено!!!

2 сезон

iTunes

1 сезон

1

2 сезон

2 сезон

iTunes

1 сезон

RePack

30

Ultimate

ВАЖНО

ИГРА 18+

pack

RePack

MK11
pack

Забери бонус

RePack

jed

!!Акция!!

Alien_Rage

RePack

fifa19

RePack

Assassins Creed: Odyssey

RePack

NEED FOR SPEED™ PAYBACK

4 сезон

9 сезон

Бесстыжие 9 сезон

Все сериалы

все сериалы на PB.wtf

RePack

FAR CRY 5
  

Королева света / Fjallbackamorden: Ljusets drottning (Рикар Петрелиус) [2013 г., детектив, криминал, BDRip 720p, Любительский одноголосый] pb.wtf

Королева света через торрент pb.wtf

Размер: 4.49 GB | Добавлен: 6 лет 8 мес. назад | Торрент скачан:6 раз
Скачать  

12-03-2014 18:43 Королева света Скачать торрент  

Королева света / Fjallbackamorden: Ljusets drottning
Год выпуска: 2013
Страна: Швеция
Жанр: детектив, криминал,
Продолжительность: 01:29:07
Перевод: Любительский одноголосый [datynet]
Субтитры: Russian [kon2011], English

Режиссер: Рикар Петрелиус
Продюссер: Понтус Сьёман, Каиса Вестлинг, Хелен Ахлссон
Сценарий: Linn Gottfridsson, Charlotte Lesche, Камилла Лекберг

Премьера в мире: 29 сентября 2013



В ролях: Клаудиа Галли, Рихард Ульфсетер, Анн Вестин, Свен-Бертиль Таубе, Эва Фритьёфсон, Памела Кортес Бруна, Леннарт Йекель,

Описание: Морозным зимним днем молодая девушка, одетая в белое платье, бежала по льду, роняя слезы. Споткнувшись, она увидела отверстие во льду и исчезла в мрачной пучине. Тем временем Эрика и Патрик готовятся встретить первое Рождество в новом доме. 13 декабря они отправляются в церковь, чтобы посетить торжественное представление Люсии, но та исчезла. Эрика отправляется на поиски пропавшей женщины и узнает о тайной любви и сыне, ищущем мести за его мать. «Королева света» — четвертый фильм из цикла «Убийства во Фьелльбакке», основанный на романах известной шведской писательницы Камиллы Лэкберг.

Качество: BDRip 720p
Формат: MKV
Видео кодек: AVC
Аудио кодек: AC3
Видео: 1280x720, 5511 kb/s, 25,0 fps
Аудио#1: Russian: AC3, 192 kb/s (2 ch)
Аудио#2: Swedish: DTS, 1510 kb/s (6 ch)
Релиз от: CINEMANIA
скриншот   скриншот   скриншот   скриншот   скриншот  
Общее
Ljusets.Drottning.2013.Blu.Ray.720p.CINEMANIA.mkv
Формат : Matroska
Версия формата : Version 4 / Version 2
Размер файла : 4,49 Гбайт
Продолжительность : 1 ч. 29 м.
Общий поток : 7215 Кбит/сек
Название фильма : Release Group CINEMANIA
Дата кодирования : UTC 2014-03-12 14:32:15
Программа кодирования : mkvmerge v6.8.0 ('Theme for Great Cities') 64bit built on Mar 2 2014 21:34:26
Библиотека кодирования : libebml v1.3.0 + libmatroska v1.4.1

Видео
Идентификатор : 1
Формат : AVC
Формат/Информация : Advanced Video Codec
Профиль формата : High@L3.1
Параметр CABAC формата : Да
Параметр ReFrames формата : 5 кадров
Идентификатор кодека : V_MPEG4/ISO/AVC
Продолжительность : 1 ч. 29 м.
Битрейт : 5511 Кбит/сек
Ширина : 1280 пикселей
Высота : 720 пикселей
Соотношение сторон : 16:9
Режим частоты кадров : Постоянный
Частота кадров : 25,000 кадров/сек
Цветовое пространство : YUV
Субдискретизация насыщенности : 4:2:0
Битовая глубина : 8 бит
Тип развёртки : Прогрессивная
Бит/(Пиксели*Кадры) : 0.239
Размер потока : 3,34 Гбайт (74%)
Заголовок : Release Group CINEMANIA
Библиотека кодирования : x264 core 140 r2377 1ca7bb9
Настройки программы : cabac=1 / ref=5 / deblock=1:0:0 / analyse=0x3:0x133 / me=umh / subme=7 / psy=1 / psy_rd=1.00:0.00 / mixed_ref=1 / me_range=16 / chroma_me=1 / trellis=1 / 8x8dct=1 / cqm=0 / deadzone=21,11 / fast_pskip=0 / chroma_qp_offset=-2 / threads=18 / lookahead_threads=3 / sliced_threads=0 / nr=0 / decimate=1 / interlaced=0 / bluray_compat=0 / constrained_intra=0 / bframes=3 / b_pyramid=2 / b_adapt=2 / b_bias=0 / direct=3 / weightb=1 / open_gop=0 / weightp=2 / keyint=250 / keyint_min=25 / scenecut=40 / intra_refresh=0 / rc_lookahead=50 / rc=2pass / mbtree=1 / bitrate=5511 / ratetol=1.0 / qcomp=0.60 / qpmin=0 / qpmax=69 / qpstep=4 / cplxblur=20.0 / qblur=0.5 / ip_ratio=1.40 / aq=1:1.00
Язык : Swedish
Default : Да
Forced : Нет

Аудио #1
Идентификатор : 2
Формат : AC-3
Формат/Информация : Audio Coding 3
Расширение режима : CM (complete main)
Параметр Endianness формата : Big
Идентификатор кодека : A_AC3
Продолжительность : 1 ч. 29 м.
Вид битрейта : Постоянный
Битрейт : 192 Кбит/сек
Каналы : 2 канала
Расположение каналов : Front: L R
Частота : 44,1 КГц
Битовая глубина : 16 бит
Метод сжатия : С потерями
Размер потока : 122 Мбайт (3%)
Заголовок : datynet
Язык : Russian
Default : Нет
Forced : Нет

Аудио #2
Идентификатор : 5
Формат : DTS
Формат/Информация : Digital Theater Systems
Режим : 16
Параметр Endianness формата : Big
Идентификатор кодека : A_DTS
Продолжительность : 1 ч. 29 м.
Вид битрейта : Постоянный
Битрейт : 1509 Кбит/сек
Каналы : 6 каналов
Расположение каналов : Front: L C R, Side: L R, LFE
Частота : 48,0 КГц
Битовая глубина : 24 бит
Метод сжатия : С потерями
Размер потока : 962 Мбайт (21%)
Язык : Swedish
Default : Нет
Forced : Нет

Текст #1
Идентификатор : 3
Формат : UTF-8
Идентификатор кодека : S_TEXT/UTF8
Идентификатор кодека/Информация : UTF-8 Plain Text
Заголовок : kon2011
Язык : Russian
Default : Нет
Forced : Нет

Текст #2
Идентификатор : 4
Формат : UTF-8
Идентификатор кодека : S_TEXT/UTF8
Идентификатор кодека/Информация : UTF-8 Plain Text
Язык : English
Default : Нет
Forced : Нет
pb.wtf



Скачать Королева света через торрент http://pic.kartinco.top/images/6/19nsf.jpg Скачать фильм Королева света через торрент бесплантно в хорошем качестве Описание: Морозным зимним днем молодая девушка, одетая в белое платье, бежала по льду, роняя слезы. Споткнувшись, она увидела отверстие во ... 5 10 1
Торрент: Зарегистрирован [2014-03-13 19:16] · скачан: 6 раз
Статус: T временная
Размер: 4.49 GB
Как cкачать? Как скачать Королева света через торрент | qTorrent

% Раздел Тема Автор DL S | L
Фильмы 2013 (Звук TS, Cam, VO, DVO) [ 1.37 GB ] Королева света / Fjallbackamorden: Ljusets drottning [ 2013 Швеция HDRip ]VO GEKADOL Скачать
1 | 0

28-11-2019 20:33  

Отключить всю рекламу на сайте

    Дорогой пользователь! Огромная просьба, поблагодарите релизера, оцените раздачу и оставьте свои комментарий, если Вы скачали Королева света через торрент бесплатно! Внесите свою лепту в развитие PiratBit!
    Комментировать посты могут только пользователи прошедшие не сложную регистрацию
    Показать сообщения:    

    Королева света через торрент
    Скачать бесплатно Королева света
    Королева света скачать торрент
    Королева света смотреть онлайн
    Cкачать фильм Королева света бесплатно
    Королева света скачать торрент в хорошем качестве
    Королева света смотреть онлайн бесплатно в хорошем качестве


    Вы не можете начинать темы
    Вы не можете отвечать на сообщения
    Вы не можете редактировать свои сообщения
    Вы не можете удалять свои сообщения
    Вы не можете голосовать в опросах
    Вы не можете прикреплять файлы к сообщениям
    Вы можете скачивать файлы