Ссылка на приватное зеркало нашего сайта всего за 1$. Внимание количество ограничено!!!

2 сезон

iTunes

1 сезон

1

2 сезон

2 сезон

iTunes

1 сезон

RePack

30

Новинка

ВАЖНО

ИГРА 18+

pack

RePack

MK11
pack

Забери бонус

RePack

jed

!!Акция!!

Alien_Rage

RePack

fifa19

RePack

Assassins Creed: Odyssey

RePack

NEED FOR SPEED™ PAYBACK

4 сезон

9 сезон

Бесстыжие 9 сезон

Все сериалы

все сериалы на PB.wtf

RePack

FAR CRY 5
  

Без лица / Face/Off (Джон Ву) [1997 г., боевик, триллер, криминал, Blu-ray, Дубляж] pb.wtf

Без лица через торрент pb.wtf

Размер: 32.96 GB | Добавлен: 6 лет 8 мес. назад | Торрент скачан:10 раз
Скачать  

12-03-2014 22:52 Без лица Скачать торрент  

Без лица / Face/Off
Год выпуска: 1997
Страна: США
Жанр: боевик, триллер, криминал,
Продолжительность: 02:19:02
Перевод: Дубляж+Профессиональный (многоголосый закадровый) [Киномания]+
Профессиональный (многоголосый закадровый) [Карусель]+ Авторский (Гаврилов Андрей)+Оригинал

Субтитры: русские, украинские, английские

Режиссер: Джон Ву

В ролях: Джон Траволта, Николас Кейдж, Джоан Аллен, Алессандро Нивола, Джина Гершон, Доминик Суэйн, Ник Кассаветис, Харви Преснелл, Колм Фиор, Джон Кэрролл Линч,

Описание: Чтобы отомстить за жестокое убийство своего сына, агент ФБР Шон Арчер соглашается на сложную хирургическую операцию. Он берет себе новое лицо, лицо террориста Кастора Троя, который находится в коме.
Однако происходит непредвиденное: Трой приходит в себя и исчезает в обличьи Арчера. Жизнь Шона превращается в настоящий кошмар — ему приходится сражаться не только за свою жизнь, но и за жизнь своей жены и дочери.

Качество: Blu-ray
Формат: BDAV
Видео кодек: H.264
Аудио кодек: AC3
Видео: MPEG-4 AVC, (1920x1080),24003 Кбит/с, 23976 кадра/сек
Аудио#1: AC-3, 2 ch, 192 kbps (Rus) 48.0 KHz Дубляж
Аудио#2: AC-3, 6 ch, 448 kbps (Rus) 48.0 KHz Профессиональный (многоголосый закадровый) [Киномания]
Аудио#3: DTS, 6 ch, 1509 Кбит/с (Rus) 48.0 KHz Профессиональный (многоголосый закадровый) [Карусель]
Аудио#4: DTS, 6 ch, 1509 Кбит/с (Rus) 48.0 KHz Авторский (Гаврилов Андрей)
Аудио#5: DTS, 6 ch, 1509 Кбит/с (Eng) 48.0 KHz Оригинал
скриншот   скриншот   скриншот  

Тип потока: Видео
Длительность: 02:18:56
Кодек: AVC
Кодек/описание: Advanced Video Codec
Кодек/профиль: High@L4.1
Кодек/ID: 27
Кодек/CABAC: Yes
Кодек/ReFrames: 4 frames
Размеры изображения: 1920 x 1080 (16:9)
Частота кадров: 23.976 fps
Битрейт/тип: CBR
Стандарт: NTSC
Цветовое пространство: YUV
Тип развёртки: Progressive
Глубина: 8 bits
:
Тип потока: Звук #1
Язык: Russian
Длительность: 02:19:07.360
Кодек: AC-3
Кодек/описание: Audio Coding 3
Кодек/ID: 129
Частота дискретизации: 48.0 KHz
Каналов: 2 channels
Битрейт: 192 Kbps
Битрейт/тип: Constant
Размер потока: 191 MiB (1%)
Глубина: 16 bits
Метод сжатия: Lossy
:
Тип потока: Звук #2
Язык: Russian
Длительность: 02:19:07.360
Кодек: AC-3
Кодек/описание: Audio Coding 3
Кодек/ID: 129
Частота дискретизации: 48.0 KHz
Каналов: 6 channels
Битрейт: 448 Kbps
Битрейт/тип: Constant
Размер потока: 446 MiB (1%)
Глубина: 16 bits
Метод сжатия: Lossy
:
Тип потока: Звук #3
Язык: Russian
Длительность: 02:19:07.360
Кодек: DTS
Кодек/описание: Digital Theater Systems
Кодек/профиль: MA / Core
Режим смешивания: Stream extension
Кодек/ID: 134
Частота дискретизации: 48.0 KHz
Каналов: 6 channels
Битрейт: Unknown / 1 509 Kbps
Битрейт/тип: Variable
Глубина: 16 bits
Метод сжатия: Lossless / Lossy
:
Тип потока: Звук #4
Язык: Russian
Длительность: 02:19:07.360
Кодек: DTS
Кодек/описание: Digital Theater Systems
Кодек/профиль: MA / Core
Режим смешивания: Stream extension
Кодек/ID: 134
Частота дискретизации: 48.0 KHz
Каналов: 6 channels
Битрейт: Unknown / 1 509 Kbps
Битрейт/тип: Variable
Глубина: 16 bits
Метод сжатия: Lossless / Lossy
:
Тип потока: Звук #5
Язык: English
Длительность: 02:19:07.360
Кодек: DTS
Кодек/описание: Digital Theater Systems
Кодек/профиль: MA / Core
Режим смешивания: Stream extension
Кодек/ID: 134
Частота дискретизации: 48.0 KHz
Каналов: 6 channels
Битрейт: Unknown / 1 509 Kbps
Битрейт/тип: Variable
Глубина: 16 bits
Метод сжатия: Lossless / Lossy
:
Тип потока: Субтитры #1
Язык: Russian
Формат: PGS
:
Тип потока: Субтитры #2
Язык: Ukrainian
Формат: PGS
:
Тип потока: Субтитры #3
Язык: English
Формат: PGS
:
Тип потока: Субтитры #4
Язык: English
Формат: PGS

pb.wtf



Скачать Без лица через торрент http://pic.kartinco.top/images/6/4rgi2.jpg Скачать фильм Без лица через торрент бесплантно в хорошем качестве Описание: Чтобы отомстить за жестокое убийство своего сына, агент ФБР Шон Арчер соглашается на сложную хирургическую операцию. Он берет ... 9.9 10 13
Info! Золотая раздача, скачанное не засчитывается.
Торрент: Зарегистрирован [2014-03-12 22:52] · скачан: 10 раз
Статус: √ проверено
Размер: 32.96 GB
Как cкачать? Как скачать Без лица через торрент | qTorrent

% Раздел Тема Автор DL S | L
Фильмы (HD 720p, 1080p) (48-60 fps) [ 4.49 GB ] Без лица / Face/Off [1997 BDRip 720p ] slaventi-69 Скачать
1 | 1
Фильмы [HD 720p, 1080p] (Хороший звук DUB, MVO) [ 13.5 GB ] Без лица / Face/Off [1997 BDRip 720p] Kavasar Скачать
1 | 0
Фильмы [HD 720p, 1080p] (Хороший звук DUB, MVO) [ 7.76 GB ] Без лица / Face/Off [1997 BDRip 1080p + Оригинал] Бумер Скачать
1 | 0
Фильмы до 2000 г. [ 1.66 GB ] Без лица / Face/Off [1997 BDRip] [AVO] + [AVO] killermax2013 Скачать
1 | 0
Фильмы до 2000 г. [ 2.18 GB ] Без лица / Face/Off [1997 BDRip] chaga2009 Скачать
1 | 0
Фильмы до 2000 г. [ 1.45 GB ] Без лица / Face/Off [1997 BDRip лицензия] ACFIORENTINA Скачать
1 | 0
Фильмы [HD 720p, 1080p] (Хороший звук DUB, MVO) [ 10.31 GB ] Без лица / Face/Off [1997/ /1080p HDDVDRip] .::Sergey::. Скачать
1 | 0

28-11-2019 20:33  

Отключить всю рекламу на сайте

    Дорогой пользователь! Огромная просьба, поблагодарите релизера, оцените раздачу и оставьте свои комментарий, если Вы скачали Без лица через торрент бесплатно! Внесите свою лепту в развитие PiratBit!
    Комментировать посты могут только пользователи прошедшие не сложную регистрацию
    Показать сообщения:    

    Без лица через торрент
    Скачать бесплатно Без лица
    Без лица скачать торрент
    Без лица смотреть онлайн
    Cкачать фильм Без лица бесплатно
    Без лица скачать торрент в хорошем качестве
    Без лица смотреть онлайн бесплатно в хорошем качестве


    Вы не можете начинать темы
    Вы не можете отвечать на сообщения
    Вы не можете редактировать свои сообщения
    Вы не можете удалять свои сообщения
    Вы не можете голосовать в опросах
    Вы не можете прикреплять файлы к сообщениям
    Вы можете скачивать файлы