Присоединяйтесь к нам в Telegram!, здесь всегда актуальный адрес сайта, оперативная поддержка и многое другое!!

>

5.9

iTunes

7.4

iTunes

9.4

1 сезон

1

7.4

2 сезон

7.2

iTunes

7.3

1 сезон

13

6.1

iTunes

8.3

GOG

30

ULTIMATE

pack

9.9

Лицензия

ВАЖНО

ИГРА 18+

pack

7.3

RePack

MK11

7.7

RePack

jed

7.8

RePack

fifa19

8.5

RePack

RDR2

RePack

NEED FOR SPEED™ PAYBACK

5 сезон

9 сезон

Бесстыжие 9 сезон

Все сериалы

все сериалы на PB.wtf

RePack

FAR CRY 5

Anonymous, доброе утро, мы катастрофически не успеваем собрать деньги на оплату серверов, помогите нам пожалуйста 5,10,15р., для нас важна любая помощь . В качестве благодарности мы отключим Вам всю рекламу на сайте (укажите свой ник в строку Ваше имя)!

×
  
Magnet ссылка

Видеоподборка от Fancy / Fancy - Videos & Lives [2008 г., Eurodisco, DVDRip] pb.wtf

Видеоподборка от Fancy через торрент pb.wtf

Размер: 2.35 GB | Добавлен: 7 лет 8 мес. назад | Торрент скачан:116 раз
Смотреть онлайн Видеоподборка от Fancy | Скачать    Ребята, помогите собрать деньги на оплату серверов!!!

13-03-2014 09:25 Видеоподборка от Fancy Скачать торрент  

Видеоподборка от Fancy
Год выпуска: 2008
Страна: Германия
Жанр: Eurodisco
Продолжительность: 00:48:16
Перевод: Оригинал

В ролях: Fancy (7 июля 1946 года в г. Мюнхен, Германия.) Его настоящее имя - Manfred Alois Segieth.

Описание: Видеоподборка от Fancy
1.Slice Me Nice (original video)
2.Get Lost Tonight (original video)
3.Latin Fire (hitparade)
4.Lady Of Ice (original video)
5.Lady Of Ice (hitparade)
6.Lady Of Ice (3sat)
7.China Blue (original video)
8.Flames Of Love (hitparade)
9.Fools Cry (hitparade)
10.No Tears (original video)
11.Angel Eyes (original video)
12.Mega-mix '94
13.Flames Of Love (1999)
14.Mega-mix '98 (original video)
15.We Can Move A Mountain (live on ZDF)
Fancy (Фэнси) (Манфред Алоис Зегит, нем. Manfred Alois Segieth, род. 7 июля 1946) — немецкий певец, исполняющий песни в стилях итало диско и евродиско. Пик его популярности пришёлся на середину и конец 1980-х годов.
Fancy дал уже болeе чем 1000 концертов в США, Канаде, Азии и Европе.
Fancy был 9 раз в Тор-20 Нits в Германии, Азии, и Америке. Так было, например, с Bolero три Месяца № 1 в Испании и 3 раза Тор-10 в Америке (US Billboard Charts).
С того времени, как два его Альбома «Best Of» и «Hitparty» попали в число первых, и Fancy’s «Megamix» стал Тор-Нit, исполнитель приобрел статус супер-звезды.
Fancy-Hits с 80-х годов уже давно стали незабываемыми и популярными во всем мире.
Качество: DVDRip
Формат: AVI
Видео кодек: XviD
Аудио кодек: MPEG Audio
Видео: Xvid 720x544, 25.00fps, 6 870 Kbps
Аудио: MPEG Audio, 48000Hz, stereo, 224kbps
Релиз от: cobra2000





General
Complete name : C:Documents and SettingsAdminМои документыМои рисункиFancy avifancy_videos_lives_4.avi
Format : AVI
Format/Info : Audio Video Interleave
File size : 160 MiB
Duration : 3mn 8s
Overall bit rate : 7 102 Kbps
Writing application : VirtualDubMod 1.5.4.1 (build 2178/release)
Writing library : VirtualDubMod build 2178/release

Video
ID : 0
Format : MPEG-4 Visual
Format profile : Advanced Simple@L5
Format settings, BVOP : No
Format settings, QPel : No
Format settings, GMC : No warppoints
Format settings, Matrix : Custom
Codec ID : XVID
Codec ID/Hint : XviD
Duration : 3mn 8s
Bit rate : 6 870 Kbps
Width : 720 pixels
Height : 544 pixels
Display aspect ratio : 4:3
Frame rate : 25.000 fps
Color space : YUV
Chroma subsampling : 4:2:0
Bit depth : 8 bits
Scan type : Progressive
Compression mode : Lossy
Bits/(Pixel*Frame) : 0.702
Stream size : 154 MiB (97%)
Writing library : XviD 73

Audio
ID : 1
Format : MPEG Audio
Format version : Version 1
Format profile : Layer 2
Codec ID : 50
Duration : 3mn 8s
Bit rate mode : Constant
Bit rate : 224 Kbps
Channel(s) : 2 channels
Sampling rate : 48.0 KHz
Compression mode : Lossy
Stream size : 5.03 MiB (3%)
Alignment : Aligned on interleaves
Interleave, duration : 80 ms (2.00 video frames)
Interleave, preload duration : 504 ms

pb.wtf



Скачать Видеоподборка от Fancy через торрент https://pic1.kartinco.top/images/61/zvg8a.jpg Скачать, смотреть онлайн Видеоподборка от Fancy бесплантно в хорошем качестве Описание: Видеоподборка от FancySlice Me Nice (original video) Get Lost Tonight (original video) Latin Fire (hitparade) Lady Of ... 10 10 3
Info! Золотая раздача, скачанное не засчитывается.
Торрент: Зарегистрирован [2014-03-13 09:25] · скачан: 116 раз
Статус: √ проверено
Размер: 2.35 GB
Как cкачать? Как скачать Видеоподборка от Fancy через торрент | UTorrent

28-11-2019 20:33  

Отключить всю рекламу на сайте

    Дорогой пользователь! Огромная просьба, поблагодарите релизера, оцените раздачу и оставьте свои комментарий, если Вы скачали Видеоподборка от Fancy через торрент бесплатно!
    Комментировать посты могут только пользователи прошедшие не сложную регистрацию
    Показать сообщения:    

    Видеоподборка от Fancy через торрент
    Скачать бесплатно Видеоподборка от Fancy
    Видеоподборка от Fancy скачать торрент
    Видеоподборка от Fancy смотреть онлайн
    Cкачать фильм Видеоподборка от Fancy бесплатно
    Видеоподборка от Fancy скачать торрент в хорошем качестве
    Видеоподборка от Fancy смотреть онлайн бесплатно в хорошем качестве


    Вы не можете начинать темы
    Вы не можете отвечать на сообщения
    Вы не можете редактировать свои сообщения
    Вы не можете удалять свои сообщения
    Вы не можете голосовать в опросах
    Вы не можете прикреплять файлы к сообщениям
    Вы можете скачивать файлы