Ссылка на приватное зеркало нашего сайта всего за 1$. Внимание количество ограничено!!!

2 сезон

iTunes

1 сезон

1

2 сезон

2 сезон

iTunes

1 сезон

RePack

30

Новинка

ВАЖНО

ИГРА 18+

pack

RePack

MK11
pack

Забери бонус

RePack

jed

!!Акция!!

Alien_Rage

RePack

fifa19

RePack

Assassins Creed: Odyssey

RePack

NEED FOR SPEED™ PAYBACK

4 сезон

9 сезон

Бесстыжие 9 сезон

Все сериалы

все сериалы на PB.wtf

RePack

FAR CRY 5
  

Близкие враги / Enemies Closer (Питер Хайамс / Peter Hyams) [2013, Канада, США, боевик, триллер, BDRip 1080p]DVO+AVO+VO pb.wtf

Близкие враги через торрент pb.wtf

Размер: 7.97 GB | Добавлен: 6 лет 8 мес. назад | Торрент скачан:72 раза
Скачать  

13-03-2014 22:50 Близкие враги Скачать торрент  

Название: Близкие враги
Оригинальное название: Enemies Closer
Год выхода: 2013
Выпущено: Канада, США
Продолжительность: 01:21:40
Озвучивание:
Профессиональное (двухголосое) [Пиратская Студия]
Авторское (одноголосое) [Д.Есарев]
Любительское (одгоголосое) [ХиХидок]
Субтитры: Russian [jasinpapa], English
Жанр: триллер
Режиссер: Питер Хайамс
В ролях: Жан-Клод Ван Дамм, Орландо Джонс, Том Эверетт Скотт, Линзи Коккер, Кристофер Ван Варенберг, Захари Бахаров, Атанас Сребрев, Мэтт Медрано, Йонас Токингтон, Христо Митцков

Описание:
Генри – бывший «морской котик», который оставил армейскую службу и попытался забыть все, что с ней связано. Теперь он работает рейнджером на границе между Канадой и США, живет в одиноком лесном доме и не страдает от отсутствия собеседников. Однажды в размеренную жизнь Генри ворвалось прошлое, от которого он бежал: на пороге оказался враг, давно искавший его. У этого врага, молодого мужчины по имени Клэй, к Генри скопилось немало претензий, и он собирается наконец покарать его.

Впрочем, и этим планам не суждено было сбыться в тот вечер. Когда Клэй привел Генри на берег озера, чтобы с ним разделаться, в их конфликт вмешалась третья сила. Банда наркоторговцев, потерявшая крупную партию наркотиков, заметила на берегу двоих мужчин и решила использовать их для поисков. Теперь Генри и Клэю, загнанным в угол и вполне обоснованно опасающимся за свою жизнь, придется найти способ работать в команде, ведь иначе им обоим совершенно точно не уцелеть.



Файл
Формат: MKV
Качество: BDRip 1080p [WiKi]
Видео кодек: MPEG-4 AVC Video
Аудио кодек: DTS, AC3
Видео: 9000 kb/s, 1920x1080,25,000 кадров/сек
Аудио:
1/Russian [Пиратская Студия]: AC3, 448 kb/s (6 ch)48,0 КГц
2/Russian [Д.Есарев] / [ХихиДок]: DTS, 1510 kb/s (6 ch) 48,0 КГц
3/English: DTS, 1510 kb/s (6 ch) 48,0 КГц
Дополнительно: Сохранены оригинальные чаптеры как на Blu-Ray

Скачать: Сэмпл

Релиз группы:


Общее
Enemies.Closer.2013.Blu.Ray.1080p.CINEMANIA.mkv
Формат : Matroska
Версия формата : Version 4 / Version 2
Размер файла : 7,97 Гбайт
Продолжительность : 1 ч. 21 м.
Общий поток : 14,0 Мбит/сек
Название фильма : Release Group CINEMANIA
Дата кодирования : UTC 2014-03-13 15:31:12
Программа кодирования : mkvmerge v6.8.0 ('Theme for Great Cities') 64bit built on Mar 2 2014 21:34:26
Библиотека кодирования : libebml v1.3.0 + libmatroska v1.4.1

Видео
Идентификатор : 1
Формат : AVC
Формат/Информация : Advanced Video Codec
Профиль формата : High@L4.1
Параметр CABAC формата : Да
Параметр ReFrames формата : 4 кадра
Идентификатор кодека : V_MPEG4/ISO/AVC
Продолжительность : 1 ч. 21 м.
Битрейт : 9000 Кбит/сек
Ширина : 1920 пикселей
Высота : 1080 пикселей
Соотношение сторон : 16:9
Режим частоты кадров : Постоянный
Частота кадров : 25,000 кадров/сек
Цветовое пространство : YUV
Субдискретизация насыщенности : 4:2:0
Битовая глубина : 8 бит
Тип развёртки : Прогрессивная
Бит/(Пиксели*Кадры) : 0.174
Размер потока : 4,97 Гбайт (62%)
Заголовок : Release Group CINEMANIA
Библиотека кодирования : x264 core 136 r2348+704+51 d1baef6 tMod [8-bit@all X86]
Настройки программы : cabac=1 / ref=4 / deblock=1:-3:-3 / analyse=0x3:0x133 / me=umh / subme=11 / psy=1 / fade_compensate=0.00 / psy_rd=1.05:0.05 / mixed_ref=1 / me_range=64 / chroma_me=1 / trellis=2 / 8x8dct=1 / cqm=0 / deadzone=21,11 / fast_pskip=0 / chroma_qp_offset=-3 / threads=12 / lookahead_threads=2 / sliced_threads=0 / nr=0 / decimate=0 / interlaced=0 / bluray_compat=0 / constrained_intra=0 / fgo=0 / bframes=8 / b_pyramid=2 / b_adapt=2 / b_bias=0 / direct=3 / weightb=1 / open_gop=0 / weightp=2 / keyint=250 / keyint_min=25 / scenecut=40 / intra_refresh=0 / rc_lookahead=120 / rc=2pass / mbtree=0 / bitrate=9000 / ratetol=1.0 / qcomp=0.70 / qpmin=0:0:0 / qpmax=69:69:69 / qpstep=4 / cplxblur=20.0 / qblur=0.5 / vbv_maxrate=50000 / vbv_bufsize=50000 / nal_hrd=none / ip_ratio=1.40 / pb_ratio=1.30 / aq=1:0.85 / aq-sensitivity=10.00 / aq-factor=1.00:1.00:1.00 / aq2=0 / aq3=0
Язык : English
Default : Да
Forced : Нет

Аудио #1
Идентификатор : 2
Формат : AC-3
Формат/Информация : Audio Coding 3
Расширение режима : CM (complete main)
Параметр Endianness формата : Big
Идентификатор кодека : A_AC3
Продолжительность : 1 ч. 21 м.
Вид битрейта : Постоянный
Битрейт : 448 Кбит/сек
Каналы : 6 каналов
Расположение каналов : Front: L C R, Side: L R, LFE
Частота : 48,0 КГц
Битовая глубина : 16 бит
Метод сжатия : С потерями
Размер потока : 262 Мбайт (3%)
Заголовок : Пиратская Студия
Язык : Russian
Default : Да
Forced : Да

Аудио #2
Идентификатор : 3
Формат : DTS
Формат/Информация : Digital Theater Systems
Режим : 16
Параметр Endianness формата : Big
Идентификатор кодека : A_DTS
Продолжительность : 1 ч. 21 м.
Вид битрейта : Постоянный
Битрейт : 1509 Кбит/сек
Каналы : 6 каналов
Расположение каналов : Front: L C R, Side: L R, LFE
Частота : 48,0 КГц
Битовая глубина : 16 бит
Метод сжатия : С потерями
Размер потока : 882 Мбайт (11%)
Заголовок : Д.Есарев
Язык : Russian
Default : Нет
Forced : Нет

Аудио #3
Идентификатор : 4
Формат : DTS
Формат/Информация : Digital Theater Systems
Режим : 16
Параметр Endianness формата : Big
Идентификатор кодека : A_DTS
Продолжительность : 1 ч. 21 м.
Вид битрейта : Постоянный
Битрейт : 1510 Кбит/сек
Каналы : 6 каналов
Расположение каналов : Front: L C R, Side: L R, LFE
Частота : 48,0 КГц
Битовая глубина : 24 бит
Метод сжатия : С потерями
Размер потока : 882 Мбайт (11%)
Заголовок : ХиХиДок
Язык : Russian
Default : Нет
Forced : Нет

Аудио #4
Идентификатор : 5
Формат : DTS
Формат/Информация : Digital Theater Systems
Режим : 16
Параметр Endianness формата : Big
Идентификатор кодека : A_DTS
Продолжительность : 1 ч. 21 м.
Вид битрейта : Постоянный
Битрейт : 1509 Кбит/сек
Каналы : 6 каналов
Расположение каналов : Front: L C R, Side: L R, LFE
Частота : 48,0 КГц
Битовая глубина : 16 бит
Метод сжатия : С потерями
Размер потока : 882 Мбайт (11%)
Язык : English
Default : Нет
Forced : Нет

Текст #1
Идентификатор : 6
Формат : UTF-8
Идентификатор кодека : S_TEXT/UTF8
Идентификатор кодека/Информация : UTF-8 Plain Text
Заголовок : jasinpapa
Язык : Russian
Default : Нет
Forced : Нет

Текст #2
Идентификатор : 7
Формат : UTF-8
Идентификатор кодека : S_TEXT/UTF8
Идентификатор кодека/Информация : UTF-8 Plain Text
Заголовок : English
Язык : English
Default : Нет
Forced : Нет

Меню
00:00:00.000 : en:00:00:00.000
00:05:18.040 : en:00:05:18.040
00:11:30.640 : en:00:11:30.640
00:17:17.400 : en:00:17:17.400
00:25:16.600 : en:00:25:16.600
00:32:33.440 : en:00:32:33.440
00:39:45.480 : en:00:39:45.480
00:48:06.400 : en:00:48:06.400
00:56:29.400 : en:00:56:29.400
01:03:02.800 : en:01:03:02.800
01:10:09.800 : en:01:10:09.800
01:16:13.240 : en:01:16:13.240
pb.wtf



Скачать Близкие враги через торрент http://5.firepic.org/5/images/2014-02/19/nmlk47gui4wl.jpg Скачать фильм Близкие враги через торрент бесплантно в хорошем качестве Описание: Генри – бывший «морской котик», который оставил армейскую службу и попытался забыть все, что с ней связано. Теперь он работает ... 8 10 7
Info! Золотая раздача, скачанное не засчитывается.
Торрент: Зарегистрирован [2014-03-13 22:50] · скачан: 72 раз
Статус: T временная
Размер: 7.97 GB
Как cкачать? Как скачать Близкие враги через торрент | qTorrent

% Раздел Тема Автор DL S | L
T Фильмы (Blu-ray, BD-Remux, HDDVD) [ 16.5 GB ] Близкие враги / Enemies Closer [2013 BDRemux ]DVO+AVO Ворон Скачать
1 | 0

28-11-2019 20:33  

Отключить всю рекламу на сайте

    Дорогой пользователь! Огромная просьба, поблагодарите релизера, оцените раздачу и оставьте свои комментарий, если Вы скачали Близкие враги через торрент бесплатно! Внесите свою лепту в развитие PiratBit!
    Комментировать посты могут только пользователи прошедшие не сложную регистрацию
    Показать сообщения:    

    Близкие враги через торрент
    Скачать бесплатно Близкие враги
    Близкие враги скачать торрент
    Близкие враги смотреть онлайн
    Cкачать фильм Близкие враги бесплатно
    Близкие враги скачать торрент в хорошем качестве
    Близкие враги смотреть онлайн бесплатно в хорошем качестве


    Вы не можете начинать темы
    Вы не можете отвечать на сообщения
    Вы не можете редактировать свои сообщения
    Вы не можете удалять свои сообщения
    Вы не можете голосовать в опросах
    Вы не можете прикреплять файлы к сообщениям
    Вы можете скачивать файлы