Ссылка на приватное зеркало нашего сайта всего за 1$. Внимание количество ограничено!!!

2 сезон

iTunes

1 сезон

1

iTunes

iTunes

iTunes

1 сезон

RePack

30

ИГРА 18+

pack

ВАЖНО

!!Акция!!

Alien_RageХит недели

RePack

MK11
pack

Забери бонус

RePack

jed

!!Акция!!

Alien_Rage

RePack

fifa19

RePack

Assassins Creed: Odyssey

RePack

NEED FOR SPEED™ PAYBACK

4 сезон

9 сезон

Бесстыжие 9 сезон

Все сериалы

все сериалы на PB.wtf

RePack

FAR CRY 5
  

Турецкий транзит Сезон: 1 / Серии: 1-8 из 8 (Мурад Алиев) [2014 г., Детектив, HDTVRip] pb.wtf

Турецкий транзит Сезон: 1 через торрент pb.wtf

Размер: 5 GB | Добавлен: 6 лет 7 мес. назад | Торрент скачан:637 раз
Скачать  

14-03-2014 11:36 Турецкий транзит Сезон: 1 Скачать торрент  

Турецкий транзит Год выпуска: 2014
Страна: : Россия, Студия «2В» по заказу телеканала «Россия»
Жанр: Детектив,
Продолжительность: 8 x ~00:45:00

Режиссер: Мурад Алиев

В ролях: Евгений Добряков, Елена Дудина, Надежда Азоркина, Фаридуншо Рахматуллоев, Бесо Гатаев, Янина Студилина, Юлия Мельникова, Борис Щербаков, Александр Лобанов, Лариса Кадочникова, Эльдар Лебедев, Владимир Жеребцов, Гюнай Мусаева, Максим Важов, Сергей Ларин, Константин Давыдов, Лариса Шахворостова, Тимур Бадалбейли,

Описание: Живут две девушки, Рита и Наташа, как две капли воды похожие друг на друга. По сюжету сериала девушки одновременно оказываются в солнечной Турции. Надо сказать, что Рита обеспеченная, а Наташа провинциальная девушка, без особых средств к существованию. Наташа со своим напарником узнала о транзите запрещенных товаров из Турции в Россию. При этом они решили ограбить турецких бандитов, что им удается. После этого Наталья кидает своего напарника и уезжает с деньгами.А с Ритой в этот момент случилась неприятность, она упала и потеряла память. Бандиты, которых ограбили, не подозревают, что Рита это не Наташа. Об этом также не догадывается и бывший напарник Наташи, который хочет вернуть свои деньги. Две противоборствующие группировки начинают преследовать Риту, которая ничего не понимает.Как Рите удалось выпутаться из этой ситуации и вернуть память будет очень интересно узнать любителям остросюжетных сериальных детективов.

Качество: HDTVRip
Формат: AVI
Видео кодек: DivX
Аудио кодек: MP3
Видео: MPEG4, DivX 5, 720x400 (16:9), 25.000 fps, 1 900 Kbps (0.264 bit/pixel)
Аудио: MP3 , 48.0 KHz, 2 ch, 128 Kbps, CBR
скриншот   скриншот   скриншот   скриншот   скриншот   скриншот   скриншот   скриншот  

Код:

Формат                           : AVI
Формат/Информация                : Audio Video Interleave
Размер файла                     : 641 Мбайт
Продолжительность                : 43 м.
Общий поток                      : 2045 Кбит/сек

Видео
Идентификатор                    : 0
Формат                           : MPEG-4 Visual
Параметр BVOP формата            : Да
Параметр QPel формата            : Нет
Параметр GMC формата             : Без точки перехода
Параметр матрицы формата         : Default (H.263)
Идентификатор кодека             : DX50
Идентификатор кодека/Подсказка   : DivX 5
Продолжительность                : 43 м.
Битрейт                          : 1900 Кбит/сек
Ширина                           : 720 пикс.
Высота                           : 400 пикс.
Соотношение сторон               : 16:9
Частота кадров                   : 25,000 кадр/сек
Цветовое пространство            : YUV
Подвыборка цветности             : 4:2:0
Битовая глубина                  : 8 бит
Тип развёртки                    : Прогрессивная
Метод сжатия                     : С потерями
Бит/(Пиксели*Кадры)              : 0.264
Размер потока                    : 595 Мбайт (93%)
Библиотека кодирования           : Intel(R) MPEG-4 encoder based on Intel(R) IPP 6.1 build 137.20[6.1.137.763]

Аудио
Идентификатор                    : 1
Формат                           : MPEG Audio
Версия формата                   : Version 1
Профиль формата                  : Layer 3
Режим                            : Joint stereo
Расширение режима                : MS Stereo
Идентификатор кодека             : 55
Идентификатор кодека/Подсказка   : MP3
Продолжительность                : 43 м.
Вид битрейта                     : Постоянный
Битрейт                          : 128 Кбит/сек
Канал(ы)                         : 2 канала(ов)
Частота                          : 48,0 КГц
Метод сжатия                     : С потерями
Размер потока                    : 40,1 Мбайт (6%)
Выравнивание                     : Соединение по промежуткам
Продолжительность промежутка     : 24  мс. (0,60 видеокадр)
Библиотека кодирования           : LAME3.98.2


pb.wtf



Скачать Турецкий транзит Сезон: 1 через торрент http://pic.kartinco.top/images/6/2fstj.jpg Скачать фильм Турецкий транзит Сезон: 1 через торрент бесплантно в хорошем качестве Описание: Живут две девушки, Рита и Наташа, как две капли воды похожие друг на друга. По сюжету сериала девушки одновременно оказываются в ... 8.4 10 18
Info! Золотая раздача, скачанное не засчитывается.
Торрент: Зарегистрирован [2014-03-14 11:36] · скачан: 637 раз
Статус: √ проверено
Размер: 5 GB
Как cкачать? Как скачать Турецкий транзит Сезон: 1 через торрент | qTorrent

28-11-2019 20:33  

Отключить всю рекламу на сайте

    Дорогой пользователь! Огромная просьба, поблагодарите релизера, оцените раздачу и оставьте свои комментарий, если Вы скачали Турецкий транзит Сезон: 1 через торрент бесплатно! Внесите свою лепту в развитие PiratBit!
    Комментировать посты могут только пользователи прошедшие не сложную регистрацию
    Показать сообщения:    

    Турецкий транзит Сезон: 1 через торрент
    Скачать бесплатно Турецкий транзит Сезон: 1
    Турецкий транзит Сезон: 1 скачать торрент
    Турецкий транзит Сезон: 1 смотреть онлайн
    Cкачать фильм Турецкий транзит Сезон: 1 бесплатно
    Турецкий транзит Сезон: 1 скачать торрент в хорошем качестве
    Турецкий транзит Сезон: 1 смотреть онлайн бесплатно в хорошем качестве


    Вы не можете начинать темы
    Вы не можете отвечать на сообщения
    Вы не можете редактировать свои сообщения
    Вы не можете удалять свои сообщения
    Вы не можете голосовать в опросах
    Вы не можете прикреплять файлы к сообщениям
    Вы можете скачивать файлы