Ссылка на приватное зеркало всего за 1$. Внимание количество ограничено!!!

iTunes

iTunes

iTunes

1

iTunes

iTunes

iTunes

WEBRip

iTunes

30
pack

$ от Little Big

ВАЖНО

!!Акция!!

Alien_RageХит недели

RePack

Resident Evil 21

ИГРА 18+

pack

RePack

jed

!!Акция!!

Alien_Rage

RePack

fifa19

RePack

Assassins Creed: Odyssey

RePack

NEED FOR SPEED™ PAYBACK

4 сезон

9 сезон

Бесстыжие 9 сезон

Все сериалы

все сериалы на PB.wtf

RePack

FAR CRY 5
  

Риорита (Петр Тодоровский) [2008 г., Драма,военный, DVDRip] pb.wtf

Риорита через торрент pb.wtf

Размер: 1.37 GB | Добавлен: 6 лет 4 мес. назад | Торрент скачан:138 раз
Скачать  

14-03-2014 13:44 Риорита Скачать торрент  

Риорита
Год выпуска: 2008
Страна: Россия "Рекун-Синема" по заказу студии "Мирабель"
Жанр: Драма, военный
Продолжительность: 01:37:22

Режиссер: Петр Тодоровский
Продюссер: Мира Тодоровская
Сценарий: Петр Тодоровский



В ролях: Константин Воробьёв, Иван Криворучко, Дмитрий Ульянов, Анатолий Гущин, Яков Шамшин, Алексей Горбунов, Светлана Зеленковская, Александр Молчанов (II), Алеся Пуховая, Алексей Колокольцев, Павел Южаков-Харланчук, Алексей Шедько, Сергей Прокопич, Кирилл Новицкий, Виктор Рыбчинский, Иннокентий Сичкарь, Пётр Юрченков (мл.), Сергей Савенков

Описание: Рабочее название "На память о пережитых страхах". Бывший надзиратель лагеря политзаключенных Бархатов, оказавшись на войне рядовым ефрейтором, не сумел, да и не захотел измениться в новых обстоятельствах и так и остался лагерным "вертухаем". И на войне, оказавшись вместе с наивными деревенскими людьми, он устроил маленький "кукольный" театр, где стал главным "кукловодом". Главные герои фильма – семья Пичуговых: отец и три сына. Их мобилизовали в маленьком белорусском селе, освобожденном от немецкой оккупации в конце 1944 года. Они влились в армейское подразделение, успешно наступающее на Запад в начале 1945 года. В одном взводе с семьей и оказался ефрейтор Бархатов. Сам того не желая (такова натура) и пользуясь наивностью и необразованностью четырех крестьян, он затевает дьявольскую игру.

Качество: DVDRip
Формат: AVI
Видео кодек: XviD
Аудио кодек: AC3
Видео: Xvid 720x400, 25.00fps, 1 751 Kbps
Аудио: Dolby AC3, 48000Hz, stereo, 256kbps
Релиз от: ХИМИК





General
Complete name : L:14 03 2014Riorita.DVDRip by XIMIK for Kinozal.ws[torrents.ru].avi
Format : AVI
Format/Info : Audio Video Interleave
File size : 1.37 GiB
Duration : 1h 37mn
Overall bit rate : 2 014 Kbps
Writing application : VirtualDubMod 1.5.4.1 (build 2178/release)
Writing library : VirtualDubMod build 2178/release

Video
ID : 0
Format : MPEG-4 Visual
Format profile : Advanced Simple@L5
Format settings, BVOP : 1
Format settings, QPel : No
Format settings, GMC : No warppoints
Format settings, Matrix : Custom
Codec ID : XVID
Codec ID/Hint : XviD
Duration : 1h 37mn
Bit rate : 1 751 Kbps
Width : 720 pixels
Height : 400 pixels
Display aspect ratio : 16:9
Frame rate : 25.000 fps
Color space : YUV
Chroma subsampling : 4:2:0
Bit depth : 8 bits
Scan type : Progressive
Compression mode : Lossy
Bits/(Pixel*Frame) : 0.243
Stream size : 1.19 GiB (87%)
Writing library : XviD 1.2.0.dev47 (UTC 2006-11-01)

Audio
ID : 1
Format : AC-3
Format/Info : Audio Coding 3
Mode extension : CM (complete main)
Codec ID : 2000
Duration : 1h 37mn
Bit rate mode : Constant
Bit rate : 256 Kbps
Channel(s) : 2 channels
Channel positions : Front: L R
Sampling rate : 48.0 KHz
Bit depth : 16 bits
Compression mode : Lossy
Stream size : 178 MiB (13%)
Alignment : Split accross interleaves
Interleave, duration : 96 ms (2.40 video frames)
Interleave, preload duration : 96 ms

pb.wtf



Скачать Риорита через торрент http://pic.kartinco.top/images/6/ywp47.jpg Скачать фильм Риорита через торрент бесплантно в хорошем качестве Описание: Рабочее название "На память о пережитых страхах". Бывший надзиратель лагеря политзаключенных Бархатов, оказавшись на войне ... 9.4 10 8
Торрент: Зарегистрирован [2014-03-14 13:44] · скачан: 138 раз
Статус: √ проверено
Размер: 1.37 GB
Как cкачать? Как скачать Риорита через торрент | qTorrent

28-11-2019 20:33  

Отключить всю рекламу на сайте

    Дорогой пользователь! Огромная просьба, поблагодарите релизера, оцените раздачу и оставьте свои комментарий, если Вы скачали Риорита через торрент бесплатно! Внесите свою лепту в развитие PiratBit!
    Комментировать посты могут только пользователи прошедшие не сложную регистрацию
    Показать сообщения:    

    Риорита через торрент
    Скачать бесплатно Риорита
    Риорита скачать торрент
    Риорита смотреть онлайн
    Cкачать фильм Риорита бесплатно
    Риорита скачать торрент в хорошем качестве
    Риорита смотреть онлайн бесплатно в хорошем качестве


    Вы не можете начинать темы
    Вы не можете отвечать на сообщения
    Вы не можете редактировать свои сообщения
    Вы не можете удалять свои сообщения
    Вы не можете голосовать в опросах
    Вы не можете прикреплять файлы к сообщениям
    Вы можете скачивать файлы