новый адрес
Мега распродажа FORZA HORIZON 4 ULTIMATE+ВСЕ DLC+ОНЛАЙН всего за 499р. 349 руб. (супер цена). Внимание количество ограничено!!!

iTunes

1+1

iTunes

мы

iTunes

1

iTunes

Чернобыль

iTunes

Ральф против интернета

Лицензия

ПШазам

Лицензия

Игра престолов

Лицензия

30
pack

ВАЖНО

!!Акция!!

Alien_RageХит недели

RePack

Resident Evil 21

ИГРА 18+

pack

RePack

Metro:Exodus

!!Акция!!

Alien_Rage

RePack

fifa19

RePack

Assassins Creed: Odyssey

RePack

NEED FOR SPEED™ PAYBACK

3 сезон

9 сезон

Бесстыжие 9 сезон

Все сериалы

все сериалы на PB.wtf

RePack

FAR CRY 5
Ребята, катастрофически не хватает 1900р. для оплаты серверов за Октябрь (всвязи с блокировками трафик упал в 3 раза), 1-2р., выручайте.
  

Гу-га (Виллен Новак) [1989 г., Военный, Драма, Советский фильм, DVDRip] pb.wtf

Гу-га через торрент pb.wtf

Размер: 2.05 GB | Добавлен: 5 лет 8 мес. назад | Торрент скачан:194 раза
Скачать  

14-03-2014 16:48 Гу-га Скачать торрент  

Гу-га
Год выпуска: 1989
Страна: СССР Госкино, Одесская киностудия
Жанр: Военный, Драма, Советский фильм
Продолжительность: 02:06:23

Режиссер: Виллен Новак
Сценарий: Виллен Новак



В ролях: Алексей Волков, Константин Шафоренко, Александр Соловьев, Александр Калугин, Вера Сотникова, Сергей Скрипкин, Владимир Носик, Николай Холошин, Алексей Горбунов, Андрей Толубеев

Описание: По повести Мориса Симашко. Фильм приоткрывает завесу над еще одним порождением сталинского режима – батальонами штрафников времен Великой Отечественной войны, месяц службы в которых приравнивался к десяти годам тюрьмы. `Гу-га` - фильм о тех, кто, проливая свою кровь, ежедневно рискуя собственной жизнью, расплачивался за ошибки штабных стратегов.

Качество: DVDRip
Формат: AVI
Видео кодек: DivX
Аудио кодек: AC3
Видео: DivX 5 704x544, 25.00fps, 1 928 Kbps
Аудио: Dolby AC3, 48000Hz, 6ch, 384kbps
Релиз от: Devprojman





General
Complete name : L:14 03 2014Gu-Ga.avi
Format : AVI
Format/Info : Audio Video Interleave
Format profile : OpenDML
File size : 2.05 GiB
Duration : 2h 6mn
Overall bit rate : 2 325 Kbps
Writing application : VirtualDubMod 1.5.10.2 (build 2540/release)
Writing library : VirtualDubMod build 2540/release

Video
ID : 0
Format : MPEG-4 Visual
Format settings, BVOP : 1
Format settings, QPel : No
Format settings, GMC : No warppoints
Format settings, Matrix : Default (H.263)
Muxing mode : Packed bitstream
Codec ID : DX50
Codec ID/Hint : DivX 5
Duration : 2h 6mn
Bit rate : 1 928 Kbps
Width : 704 pixels
Height : 544 pixels
Display aspect ratio : 1.294
Frame rate : 25.000 fps
Color space : YUV
Chroma subsampling : 4:2:0
Bit depth : 8 bits
Scan type : Progressive
Compression mode : Lossy
Bits/(Pixel*Frame) : 0.201
Stream size : 1.70 GiB (83%)
Writing library : DivX 6.8.5 (UTC 2009-08-20)

Audio
ID : 1
Format : AC-3
Format/Info : Audio Coding 3
Mode extension : CM (complete main)
Codec ID : 2000
Duration : 2h 6mn
Bit rate mode : Constant
Bit rate : 384 Kbps
Channel(s) : 6 channels
Channel positions : Front: L C R, Side: L R, LFE
Sampling rate : 48.0 KHz
Bit depth : 16 bits
Compression mode : Lossy
Stream size : 347 MiB (17%)
Alignment : Split accross interleaves
Interleave, duration : 40 ms (1.00 video frame)
Interleave, preload duration : 500 ms

pb.wtf



Скачать Гу-га через торрент http://pic.kartinco.top/images/6/1qvi7.jpg Скачать фильм Гу-га через торрент бесплантно в хорошем качестве Описание: По повести Мориса Симашко. Фильм приоткрывает завесу над еще одним порождением сталинского режима – батальонами штрафников времен ... 9.9 10 12
Info! Золотая раздача, скачанное не засчитывается.
Торрент: Зарегистрирован [2014-03-14 16:48] · скачан: 194 раз
Статус: √ проверено
Размер: 2.05 GB
Как cкачать? Как скачать Гу-га через торрент | qTorrent

% Раздел Тема Автор DL S | L
Наши сериалы [ 48.23 GB ] Морские дьяволы / 1-5 сезоны \ 1-108 серий из 108 [2005-2011 Военный DVDRip SATRip Оригинал] dotWizard Скачать
1 | 0
Фильмы [HD 720p, 1080p] (Хороший звук DUB, MVO) [ 27.55 GB ] Бойцовский клуб / Fight Club [1999 BDRip 1080p] Dub + 5xMVO + 8xAVO + Original + Sub Seedtank Скачать
1 | 0
Navigon / Navitel [ 498 MB ] Навител / Navitel v9.1.0.713/710 [Ru/Multi] - с авто-определением настроек GPS для ГУ и автонавигаторов SKAV Скачать
4 | 1
Фильмы [HD 720p, 1080p] (Хороший звук DUB, MVO) [ 13.81 GB ] Побег из Гулага / So weit die Füße tragen [2001 BDRip 1080p] -Lexx- Скачать
1 | 0
Фильмы с авторской озвучкой [ 1.47 GB ] Любовная лихорадка / Любовная песня для Бобби Лонга / A Love Song for Bobby Long [2004 HDRip] [AVO] killermax2013 Скачать
1 | 0
Фильмы [HD 720p, 1080p] (Звук Cam, VO, DVO) [ 6.04 GB ] Торренте 5: Операция Евровегас / Torrente V: Mision Eurovegas [2014 BDRip 720p] VO Ворон Скачать
1 | 0
Фильмы 2014 (Звук TS, Cam, VO, DVO) [ 1.46 GB ] Торренте 5: Операция Евровегас / Torrente V: Mision Eurovegas [2014 HDRip] VO Ворон Скачать
1 | 0


>> Регистрируемся здесь <<






Отзывы и комментарии о схеме читаем и пишем здесь: ---> Отзывы и комментарии о схеме

Новые благодарочки в телеграм довольных пользователей:
скриншот   скриншот   скриншот   скриншот   скриншот

14-03-2014 16:55 Гу-га Скачать торрент  

Мне фильм давно понравился,особенно я очень люблю Веру Сотникову (красавица,мой идеал, Кузьмин-дурачок,раз расстался с такой женщиной!!!!)pb.wtf



    Дорогой пользователь! Огромная просьба, поблагодарите релизера, оцените раздачу и оставьте свои комментарий, если Вы скачали Гу-га через торрент бесплатно! Внесите свою лепту в развитие PiratBit!
    Комментировать посты могут только пользователи прошедшие не сложную регистрацию
    Показать сообщения:    

    Гу-га через торрент
    Скачать бесплатно Гу-га
    Гу-га скачать торрент
    Гу-га смотреть онлайн
    Cкачать фильм Гу-га бесплатно
    Гу-га скачать торрент в хорошем качестве
    Гу-га смотреть онлайн бесплатно в хорошем качестве


    Вы не можете начинать темы
    Вы не можете отвечать на сообщения
    Вы не можете редактировать свои сообщения
    Вы не можете удалять свои сообщения
    Вы не можете голосовать в опросах
    Вы не можете прикреплять файлы к сообщениям
    Вы можете скачивать файлы