2 сезон

iTunes

MVO

1

2 сезон

iTunes

iTunes

1 сезон

RePack

30

Ultimate

ВАЖНО

ИГРА 18+

pack

RePack

MK11
pack

Легкие деньги

RePack

jed

RePack

fifa19

RePack

RDR2

RePack

NEED FOR SPEED™ PAYBACK

4 сезон

9 сезон

Бесстыжие 9 сезон

Все сериалы

все сериалы на PB.wtf

RePack

FAR CRY 5

Anonymous, доброй ночи, мы не успеваем собрать деньги на оплату серверов за декабрь и январь, помогите нам пожалуйста в это трудное время. В качестве благодарности мы отключим Вам всю рекламу на сайте (укажите свой ник в строку Ваше имя)!

×
  
Magnet ссылка

Жизнь Адель / La vie d'Adèle - Chapitres 1 et 2 (Абделатиф Кешиш / Abdelatif Kechiche) [ 2013 , Франция, Бельгия, Испания , драма, мелодрама , HDRip, DUB ] pb.wtf

Жизнь Адель через торрент pb.wtf

Размер: 2.91 GB | Добавлен: 6 лет 10 мес. назад | Торрент скачан:159 раз
Скачать  

15-03-2014 09:25 Жизнь Адель Скачать торрент  

Жизнь Адель / La vie d'Adèle- Chapitres 1 et 2 Год выпуска:2013
Страна: Франция, Бельгия, Испания
Жанр: драма, мелодрама
Продолжительность: 03:00:08
Перевод: Профессиональный (полное дублирование)

Субтитры: Нет
Режиссер: Абделатиф Кешиш / Abdelatif Kechiche

В ролях: Адель Экзаркопулос (Adèle), Леа Сейду (Emma), Салим Кешьюш (Samir), Орельен Рекуан (Père Adèle), Кэтрин Сали (Mère Adèle), Бенжамин Сиксу (Antoine), Мона Валравенс (Lise), Альма Жодоровски (Béatrice), Жереми Лаэрт (Thomas), Энн Лорье (Mère Emma), Бенуа Пилот (Beau Père Emma), Сандор Фюнтек (Valentin)
Описание:
15-летняя Адель мечтает о вечной любви и встречает очаровательного парня, который тут же влюбляется в неё. Но неожиданно для неё самой, Адель начинает видеть странные сны с участием загадочной девушки с синими волосами, которую случайно встретила на улице. Юная Адель начинает понимать, что её манят не просто синие волосы, её привлекает сама незнакомка.
Рейтинг
kinopoisk.ru: 7.520 (5551)
imdb.com: 8.00 (30 201)
MPAA: NC-17 - Лицам до 17 лет просмотр запрещен
Качество: HDRip
Формат: AVI
Видео кодек: XviD
Аудио кодек: AC3
Видео: XviD, 720x304 (2.35:1), 1852 kbps, 23,976 fps, 0,353 bpp
Аудио: AC3 / 5.1 / 48 kHz / 448 kbps / 16 bit© Оформление by ФёдорOFF
General
Complete name : D:раздачиZhiznj.Adelj.2013.D.HDRip.2.91GB.avi
Format : AVI
Format/Info : Audio Video Interleave
Format profile : OpenDML
File size : 2.91 GiB
Duration : 3h 0mn
Overall bit rate : 2 311 Kbps
Writing application : VirtualDubMod 1.5.10.2 (build 2540/release)
Writing library : VirtualDubMod build 2540/release

Video
ID : 0
Format : MPEG-4 Visual
Format profile : Advanced Simple@L5
Format settings, BVOP : 2
Format settings, QPel : No
Format settings, GMC : No warppoints
Format settings, Matrix : Custom
Codec ID : XVID
Codec ID/Hint : XviD
Duration : 3h 0mn
Bit rate : 1 853 Kbps
Width : 720 pixels
Height : 304 pixels
Display aspect ratio : 2.35:1
Frame rate : 23.976 fps
Color space : YUV
Chroma subsampling : 4:2:0
Bit depth : 8 bits
Scan type : Progressive
Compression mode : Lossy
Bits/(Pixel*Frame) : 0.353
Stream size : 2.33 GiB (80%)
Writing library : XviD 1.2.1 (UTC 2008-12-04)

Audio
ID : 1
Format : AC-3
Format/Info : Audio Coding 3
Mode extension : CM (complete main)
Codec ID : 2000
Duration : 3h 0mn
Bit rate mode : Constant
Bit rate : 448 Kbps
Channel(s) : 6 channels
Channel positions : Front: L C R, Side: L R, LFE
Sampling rate : 48.0 KHz
Bit depth : 16 bits
Compression mode : Lossy
Stream size : 577 MiB (19%)
Alignment : Split accross interleaves
Interleave, duration : 42 ms (1.00 video frame)
Interleave, preload duration : 500 ms
pb.wtf



Скачать Жизнь Адель через торрент http://i3.imageban.ru/out/2014/03/15/0dd97180d69e165782411bb2cd7b5f43.jpg Скачать фильм Жизнь Адель через торрент бесплантно в хорошем качестве Описание: 15-летняя Адель мечтает о вечной любви и встречает очаровательного парня, который тут же влюбляется в неё. Но неожиданно для неё ... 10 10 7
Торрент: Зарегистрирован [2014-03-15 09:25] · скачан: 159 раз
Статус: √ проверено
Размер: 2.91 GB
Как cкачать? Как скачать Жизнь Адель через торрент | UTorrent

28-11-2019 20:33  

Отключить всю рекламу на сайте

15-03-2014 09:52 Жизнь Адель Скачать торрент  

конечно,"Золотая пальмовая ветвь"...ну а кому же,если не этой педо-пачкотне?pb.wtf



15-03-2014 10:51 Жизнь Адель Скачать торрент  

Stopper68 писал(а):

конечно,"Золотая пальмовая ветвь"...ну а кому же,если не этой педо-пачкотне?

не понравился фильм? или вывод сделан заочно?pb.wtf



    Дорогой пользователь! Огромная просьба, поблагодарите релизера, оцените раздачу и оставьте свои комментарий, если Вы скачали Жизнь Адель через торрент бесплатно! Внесите свою лепту в развитие PiratBit!
    Комментировать посты могут только пользователи прошедшие не сложную регистрацию
    Показать сообщения:    

    Жизнь Адель через торрент
    Скачать бесплатно Жизнь Адель
    Жизнь Адель скачать торрент
    Жизнь Адель смотреть онлайн
    Cкачать фильм Жизнь Адель бесплатно
    Жизнь Адель скачать торрент в хорошем качестве
    Жизнь Адель смотреть онлайн бесплатно в хорошем качестве


    Вы не можете начинать темы
    Вы не можете отвечать на сообщения
    Вы не можете редактировать свои сообщения
    Вы не можете удалять свои сообщения
    Вы не можете голосовать в опросах
    Вы не можете прикреплять файлы к сообщениям
    Вы можете скачивать файлы