2 сезон

iTunes

MVO

1

2 сезон

iTunes

iTunes

1 сезон

RePack

30

Новинка

ВАЖНО

ИГРА 18+

pack

RePack

MK11
pack

Легкие деньги

RePack

jed

RePack

fifa19

RePack

RDR2

RePack

NEED FOR SPEED™ PAYBACK

4 сезон

9 сезон

Бесстыжие 9 сезон

Все сериалы

все сериалы на PB.wtf

RePack

FAR CRY 5

Anonymous, доброе утро, мы не успеваем собрать деньги на оплату серверов за декабрь и январь, помогите нам пожалуйста в это трудное время. В качестве благодарности мы отключим Вам всю рекламу на сайте (укажите свой ник в строку Ваше имя)!

×
  
Magnet ссылка

Жизнь Адель / La vie d'Adèle - Chapitres 1 et 2 (Абделатиф Кешиш / Abdelatif Kechiche) [2013, Франция, Бельгия, Испания, драма, мелодрама, HDRip,Профессиональный [Дубляж - Лицензия] pb.wtf

Жизнь Адель через торрент pb.wtf

Размер: 1.46 GB | Добавлен: 6 лет 10 мес. назад | Торрент скачан:595 раз
Скачать  

15-03-2014 09:29 Жизнь Адель Скачать торрент  

Жизнь Адель / La vie d'Adèle - Chapitres 1 et 2

Год выпуска: 2013
Страна: Франция, Бельгия, Испания
Жанр: драма, мелодрама

Продолжительность: 02:59:48
Перевод: Профессиональный [Дубляж - Лицензия]
Субтитры: Нет
Режиссер: Абделатиф Кешиш / Abdelatif Kechiche
В ролях: Адель Экзаркопулос (Adèle), Леа Сейду (Emma), Салим Кешьюш (Samir), Орельен Рекуан (Père Adèle), Кэтрин Сали (Mère Adèle), Бенжамин Сиксу (Antoine), Мона Валравенс (Lise), Альма Жодоровски (Béatrice), Жереми Лаэрт (Thomas), Энн Лорье (Mère Emma), Бенуа Пилот (Beau Père Emma), Сандор Фюнтек (Valentin)
Описание:
15-летняя Адель мечтает о вечной любви и встречает очаровательного парня, который тут же влюбляется в неё. Но неожиданно для неё самой, Адель начинает видеть странные сны с участием загадочной девушки с синими волосами, которую случайно встретила на улице. Юная Адель начинает понимать, что её манят не просто синие волосы, её привлекает сама незнакомка.
Рейтинг
kinopoisk.ru: 7.520 (5552)
imdb.com: 8.00 (30 201)
MPAA: NC-17 - Лицам до 17 лет просмотр запрещен
Качество: HDRip
Формат: AVI
Видео кодек: XviD
Аудио кодек: MP3
Видео: XviD, 720x304 (2.35:1), 1028 kbps, 23,976 fps, 0,196 bpp
Аудио: MP3 / 2.0 / 48 kHz / 128 kbps /

General
Complete name : D:ТорентыZhiznj.Adelj.2013.D.HDRip.1.46GB.avi
Format : AVI
Format/Info : Audio Video Interleave
File size : 1.46 GiB
Duration : 2h 59mn
Overall bit rate : 1 166 Kbps
Writing application : VirtualDubMod 1.5.10.2 (build 2540/release)
Writing library : VirtualDubMod build 2540/release

Video
ID : 0
Format : MPEG-4 Visual
Format profile : Advanced Simple@L5
Format settings, BVOP : 1
Format settings, QPel : No
Format settings, GMC : No warppoints
Format settings, Matrix : Custom
Codec ID : XVID
Codec ID/Hint : XviD
Duration : 2h 59mn
Bit rate : 1 029 Kbps
Width : 720 pixels
Height : 304 pixels
Display aspect ratio : 2.35:1
Frame rate : 23.976 fps
Color space : YUV
Chroma subsampling : 4:2:0
Bit depth : 8 bits
Scan type : Progressive
Compression mode : Lossy
Bits/(Pixel*Frame) : 0.196
Stream size : 1.29 GiB (88%)
Writing library : XviD 73

Audio
ID : 1
Format : MPEG Audio
Format version : Version 1
Format profile : Layer 3
Mode : Joint stereo
Codec ID : 55
Codec ID/Hint : MP3
Duration : 2h 59mn
Bit rate mode : Constant
Bit rate : 128 Kbps
Channel(s) : 2 channels
Sampling rate : 48.0 KHz
Compression mode : Lossy
Stream size : 165 MiB (11%)
Alignment : Aligned on interleaves
Interleave, duration : 42 ms (1.00 video frame)
Interleave, preload duration : 504 ms
pb.wtf



Скачать Жизнь Адель через торрент http://i4.imageban.ru/out/2014/03/15/9818e7d03719de09bca7fd2b1e5318cc.jpg Скачать фильм Жизнь Адель через торрент бесплантно в хорошем качестве Описание: 15-летняя Адель мечтает о вечной любви и встречает очаровательного парня, который тут же влюбляется в неё. Но неожиданно для неё ... 10 10 24
Торрент: Зарегистрирован [2014-03-15 09:29] · скачан: 595 раз
Статус: √ проверено
Размер: 1.46 GB
Как cкачать? Как скачать Жизнь Адель через торрент | UTorrent

28-11-2019 20:33  

Отключить всю рекламу на сайте

15-03-2014 09:53 Жизнь Адель Скачать торрент  

очередной"гимн"педо-юропейским"ценностям"pb.wtf



15-03-2014 10:50 Жизнь Адель Скачать торрент  

Stopper68 писал(а):

очередной"гимн"педо-юропейским"ценностям"

да вы остряк, у вас секса нет, не было и не будет, ну разве что порнуху одним глазком и передернуть, и потом поп-ь о ценностях и духовности, валите в церковь и не парте мозг. вон у вас есть чем заняться эротических обоев куча, и дебильных комедий.pb.wtf



15-03-2014 10:59 Жизнь Адель Скачать торрент  

MalekUA писал(а):

Stopper68 писал(а):

очередной"гимн"педо-юропейским"ценностям"

да вы остряк, у вас секса нет, не было и не будет, ну разве что порнуху одним глазком и передернуть, и потом поп-ь о ценностях и духовности, валите в церковь и не парте мозг. вон у вас есть чем заняться эротических обоев куча, и дебильных комедий.

:rofle: yespb.wtf



15-03-2014 14:37 Жизнь Адель Скачать торрент  

MalekUA писал(а):

Stopper68 писал(а):

очередной"гимн"педо-юропейским"ценностям"

да вы остряк, у вас секса нет, не было и не будет, ну разве что порнуху одним глазком и передернуть, и потом поп-ь о ценностях и духовности, валите в церковь и не парте мозг. вон у вас есть чем заняться эротических обоев куча, и дебильных комедий.

Да не гони, чувак все прально написал, запарили с этим тупым извратом ЗЫ все хорошо с сексомpb.wtf



15-03-2014 23:15 Жизнь Адель Скачать торрент  

фильм посмотрела, как жизнь прожила. интимно, откровенно, честно, больно и - любя. жизнь не имеет пола. как и любовь.
этот фильм - не кино.. это - замочная скважина и лакмусовая бумажка. для каждого свояpb.wtf



16-03-2014 04:49 Жизнь Адель Скачать торрент  

MalekUA писал(а):

Stopper68 писал(а):

очередной"гимн"педо-юропейским"ценностям"

да вы остряк, у вас секса нет, не было и не будет, ну разве что порнуху одним глазком и передернуть, и потом поп-ь о ценностях и духовности, валите в церковь и не парте мозг. вон у вас есть чем заняться эротических обоев куча, и дебильных комедий.

За меня не переживай,я столько за свою жизнь пере..б.А тебе что, к пи..рам сильно хочется в юропу?скоро тебе предоставят такую возможность,не сцы!Да,я лучше передёрну,чем как ты,ж..пу свою подставлять пи...расам.pb.wtf



17-03-2014 19:35 Жизнь Адель Скачать торрент  

Stopper68
Как будто у нас пассивных мало, тебя , вон, хотя б взять ?)) Чем тебе Европа не мила ? Небось своих детей учить да заиметь дачку ты мечтаешь где-нибудь в Верхней Пышме ?))pb.wtf



    Дорогой пользователь! Огромная просьба, поблагодарите релизера, оцените раздачу и оставьте свои комментарий, если Вы скачали Жизнь Адель через торрент бесплатно! Внесите свою лепту в развитие PiratBit!
    Комментировать посты могут только пользователи прошедшие не сложную регистрацию
    Показать сообщения:    

    Жизнь Адель через торрент
    Скачать бесплатно Жизнь Адель
    Жизнь Адель скачать торрент
    Жизнь Адель смотреть онлайн
    Cкачать фильм Жизнь Адель бесплатно
    Жизнь Адель скачать торрент в хорошем качестве
    Жизнь Адель смотреть онлайн бесплатно в хорошем качестве


    Вы не можете начинать темы
    Вы не можете отвечать на сообщения
    Вы не можете редактировать свои сообщения
    Вы не можете удалять свои сообщения
    Вы не можете голосовать в опросах
    Вы не можете прикреплять файлы к сообщениям
    Вы можете скачивать файлы