2 сезон

iTunes

MVO

1

2 сезон

iTunes

iTunes

1 сезон

RePack

30

Ultimate

ВАЖНО

ИГРА 18+

pack

RePack

MK11
pack

Легкие деньги

RePack

jed

RePack

fifa19

RePack

RDR2

RePack

NEED FOR SPEED™ PAYBACK

4 сезон

9 сезон

Бесстыжие 9 сезон

Все сериалы

все сериалы на PB.wtf

RePack

FAR CRY 5

Anonymous, добрый вечер, мы не успеваем собрать деньги на оплату серверов за декабрь и январь, помогите нам пожалуйста в это трудное время. В качестве благодарности мы отключим Вам всю рекламу на сайте (укажите свой ник в строку Ваше имя)!

×
  
Magnet ссылка

Жизнь Адель / La vie d'Adèle - Chapitres 1 et 2 (Абделатиф Кешиш / Abdelatif Kechiche) [2013, Франция, Бельгия, Испания, драма, мелодрама, HDRip,Профессиональный [Дубляж - Лицензия] pb.wtf

Жизнь Адель через торрент pb.wtf

Размер: 2.19 GB | Добавлен: 6 лет 10 мес. назад | Торрент скачан:352 раза
Скачать  

15-03-2014 09:31 Жизнь Адель Скачать торрент  

Жизнь Адель / La vie d'Adèle - Chapitres 1 et 2

Год выпуска: 2013
Страна: Франция, Бельгия, Испания
Жанр: драма, мелодрама

Продолжительность: 03:00:08
Перевод: Профессиональный [Дубляж - Лицензия]
Субтитры: Нет
Режиссер: Абделатиф Кешиш / Abdelatif Kechiche
В ролях: Адель Экзаркопулос (Adèle), Леа Сейду (Emma), Салим Кешьюш (Samir), Орельен Рекуан (Père Adèle), Кэтрин Сали (Mère Adèle), Бенжамин Сиксу (Antoine), Мона Валравенс (Lise), Альма Жодоровски (Béatrice), Жереми Лаэрт (Thomas), Энн Лорье (Mère Emma), Бенуа Пилот (Beau Père Emma), Сандор Фюнтек (Valentin)
Описание:
15-летняя Адель мечтает о вечной любви и встречает очаровательного парня, который тут же влюбляется в неё. Но неожиданно для неё самой, Адель начинает видеть странные сны с участием загадочной девушки с синими волосами, которую случайно встретила на улице. Юная Адель начинает понимать, что её манят не просто синие волосы, её привлекает сама незнакомка.
Рейтинг
kinopoisk.ru: 7.520 (5552)
imdb.com: 8.00 (30 201)
MPAA: NC-17 - Лицам до 17 лет просмотр запрещен
Качество: HDRip
Формат: AVI
Видео кодек: XviD
Аудио кодек: AC3
Видео: XviD, 720x304 (2.35:1), 1279 kbps, 23,976 fps, 0,244 bpp
Аудио: AC3 / 5.1 / 48 kHz / 448 kbps / 16 bit

General
Complete name : D:ТорентыZhiznj.Adelj.2013.D.HDRip.2100MB.avi
Format : AVI
Format/Info : Audio Video Interleave
Format profile : OpenDML
File size : 2.19 GiB
Duration : 3h 0mn
Overall bit rate : 1 740 Kbps
Writing application : VirtualDubMod 1.5.10.2 (build 2540/release)
Writing library : VirtualDubMod build 2540/release

Video
ID : 0
Format : MPEG-4 Visual
Format profile : Advanced Simple@L5
Format settings, BVOP : 2
Format settings, QPel : No
Format settings, GMC : No warppoints
Format settings, Matrix : Default (MPEG)
Codec ID : XVID
Codec ID/Hint : XviD
Duration : 3h 0mn
Bit rate : 1 280 Kbps
Width : 720 pixels
Height : 304 pixels
Display aspect ratio : 2.35:1
Frame rate : 23.976 fps
Color space : YUV
Chroma subsampling : 4:2:0
Bit depth : 8 bits
Scan type : Progressive
Compression mode : Lossy
Bits/(Pixel*Frame) : 0.244
Stream size : 1.61 GiB (74%)
Writing library : XviD 1.2.1 (UTC 2008-12-04)

Audio
ID : 1
Format : AC-3
Format/Info : Audio Coding 3
Mode extension : CM (complete main)
Codec ID : 2000
Duration : 3h 0mn
Bit rate mode : Constant
Bit rate : 448 Kbps
Channel(s) : 6 channels
Channel positions : Front: L C R, Side: L R, LFE
Sampling rate : 48.0 KHz
Bit depth : 16 bits
Compression mode : Lossy
Stream size : 577 MiB (26%)
Alignment : Split accross interleaves
Interleave, duration : 42 ms (1.00 video frame)
Interleave, preload duration : 500 ms
pb.wtf



Скачать Жизнь Адель через торрент http://i4.imageban.ru/out/2014/03/15/b6b3772fd880756976f6d50a0c27cea4.jpg Скачать фильм Жизнь Адель через торрент бесплантно в хорошем качестве Описание: 15-летняя Адель мечтает о вечной любви и встречает очаровательного парня, который тут же влюбляется в неё. Но неожиданно для неё ... 10 10 18
Торрент: Зарегистрирован [2014-03-15 09:31] · скачан: 352 раз
Статус: √ проверено
Размер: 2.19 GB
Как cкачать? Как скачать Жизнь Адель через торрент | UTorrent

28-11-2019 20:33  

Отключить всю рекламу на сайте

15-03-2014 09:51 Жизнь Адель Скачать торрент  

вот она,гей-юропа,во всей своей "красе" nopb.wtf



15-03-2014 10:01 Жизнь Адель Скачать торрент  

В европе то хоть геи, а в россии -удалено :)
Устное!pb.wtf



15-03-2014 10:12 Жизнь Адель Скачать торрент  

В мире существовал только один гей - Фредди Меркьюри, а все остальные - удалено.
Устное!pb.wtf



15-03-2014 12:23 Жизнь Адель Скачать торрент  

И при чем тут геи? Тут милые лесби, а они тут собрались, геев обсуждать pb.wtf



    Дорогой пользователь! Огромная просьба, поблагодарите релизера, оцените раздачу и оставьте свои комментарий, если Вы скачали Жизнь Адель через торрент бесплатно! Внесите свою лепту в развитие PiratBit!
    Комментировать посты могут только пользователи прошедшие не сложную регистрацию
    Показать сообщения:    

    Жизнь Адель через торрент
    Скачать бесплатно Жизнь Адель
    Жизнь Адель скачать торрент
    Жизнь Адель смотреть онлайн
    Cкачать фильм Жизнь Адель бесплатно
    Жизнь Адель скачать торрент в хорошем качестве
    Жизнь Адель смотреть онлайн бесплатно в хорошем качестве


    Вы не можете начинать темы
    Вы не можете отвечать на сообщения
    Вы не можете редактировать свои сообщения
    Вы не можете удалять свои сообщения
    Вы не можете голосовать в опросах
    Вы не можете прикреплять файлы к сообщениям
    Вы можете скачивать файлы