Ссылка на приватное зеркало всего за 1$. Внимание количество ограничено!!!

iTunes

1+1

iTunes

мы

WEB-DL

1

iTunes

Чернобыль

iTunes

Ральф против интернета

Лицензия

ПШазам

Лицензия

Оно 2

Лицензия

30
pack

Вам бонус

ВАЖНО

!!Акция!!

Alien_RageХит недели

RePack

Resident Evil 21

ИГРА 18+

pack

RePack

jed

!!Акция!!

Alien_Rage

RePack

fifa19

RePack

Assassins Creed: Odyssey

RePack

NEED FOR SPEED™ PAYBACK

3 сезон

9 сезон

Бесстыжие 9 сезон

Все сериалы

все сериалы на PB.wtf

RePack

FAR CRY 5
Ребята, катастрофически не хватает 1900р. для оплаты серверов за Октябрь (всвязи с блокировками трафик упал в 3 раза), 1-2р., выручайте.
  

Горячие парни / Hot Boyz (Мастер Пи / Master P) [1999 г., Боевик, Драма, DVDRip] [AVO] (Ю.Сербин) pb.wtf

Горячие парни через торрент pb.wtf

Размер: 783 MB | Добавлен: 5 лет 8 мес. назад | Торрент скачан:25 раз
Скачать  

15-03-2014 09:37 Горячие парни Скачать торрент  

Горячие парни / Hot Boyz
Год выпуска: 1999
Страна: США
Жанр: Боевик, драма
Продолжительность: 01:34:48
Перевод: Авторский (одноголосый, закадровый)[Юрий Сербин]

Режиссер: Мастер Пи /Master P

В ролях: Гэри Бьюзи, Мастер Пи, Брент Хафф, Пэмелла Д'Пелла, Джефф Спикмэн, Дик Энтони Уильямс, Клифтон Пауэлл, С. Томас Хауэлл, Морис Ламонт, Силкк Зе Шокер, Энтони Э. Дж. Джонсон, Кэйси Кинг, Бернард Ли Брэдфорд, Снуп Догг, Мистикал, Си-Мердер, Ширин Кратчфилд Молодой чернокожий рэппер по имени Кул любит свою девушку. Когда ее несправедливо обвиняют в убийстве полицейского, Кул, недавно ставший обладателем черного пояса, вынужден, сколотив банду из своих друзей, начать войну против гангстеров и против продажных полицейских, заставляющих его на них работать...



Качество: DVDRip
Формат: AVI
Видео кодек: XviD
Аудио кодек: MP3
Видео: 640x448 (1.43:1), 29.971 fps, XviD MPEG-4 ~885 kbps avg, 0.10 bit/pixel
Аудио: 44.100 kHz, MPEG Layer 3, 2 ch, ~256.00 kbps avg

Цитата:

звуковая дорожка была склеена из порядка 30-40 кусков,подгонялась по мимике и оригинальной дороге


Автор >>> Robot-spb

Цитата:

Лучшего исходника видео в сети не обнаружено!

General
Complete name : E:INTERNETHot Boyz.1999.DVDRip.[AVO] (SERBIN).avi
Format : AVI
Format/Info : Audio Video Interleave
File size : 783 MiB
Duration : 1h 34mn
Overall bit rate : 1 155 Kbps

Video
ID : 0
Format : MPEG-4 Visual
Format settings, BVOP : Yes
Format settings, QPel : No
Format settings, GMC : No warppoints
Format settings, Matrix : Default (H.263)
Codec ID : XVID
Codec ID/Hint : XviD
Duration : 1h 34mn
Bit rate : 885 Kbps
Width : 640 pixels
Height : 448 pixels
Display aspect ratio : 1.429
Frame rate : 29.970 fps
Color space : YUV
Chroma subsampling : 4:2:0
Bit depth : 8 bits
Scan type : Progressive
Compression mode : Lossy
Bits/(Pixel*Frame) : 0.103
Stream size : 600 MiB (77%)

Audio
ID : 1
Format : MPEG Audio
Format version : Version 1
Format profile : Layer 3
Codec ID : 55
Codec ID/Hint : MP3
Duration : 1h 34mn
Bit rate mode : Constant
Bit rate : 256 Kbps
Channel(s) : 2 channels
Sampling rate : 44.1 KHz
Compression mode : Lossy
Stream size : 174 MiB (22%)
Alignment : Aligned on interleaves
Interleave, duration : 26 ms (0.78 video frame)
pb.wtf



Скачать Горячие парни через торрент http://i59.fastpic.ru/big/2014/0315/72/da8866e82f7acf7258a75e978b740872.jpg Скачать фильм Горячие парни через торрент бесплантно в хорошем качестве В ролях: Гэри Бьюзи, Мастер Пи, Брент Хафф, Пэмелла Д'Пелла, Джефф Спикмэн, Дик Энтони Уильямс, Клифтон Пауэлл, С. Томас Хауэлл, Морис ... 5.5 10 2
Торрент: Зарегистрирован [2014-03-15 09:37] · скачан: 25 раз
Статус: √ проверено
Размер: 783 MB
Как cкачать? Как скачать Горячие парни через торрент | qTorrent

28-11-2019 20:33  

Отключить всю рекламу на сайте

    Дорогой пользователь! Огромная просьба, поблагодарите релизера, оцените раздачу и оставьте свои комментарий, если Вы скачали Горячие парни через торрент бесплатно! Внесите свою лепту в развитие PiratBit!
    Комментировать посты могут только пользователи прошедшие не сложную регистрацию
    Показать сообщения:    

    Горячие парни через торрент
    Скачать бесплатно Горячие парни
    Горячие парни скачать торрент
    Горячие парни смотреть онлайн
    Cкачать фильм Горячие парни бесплатно
    Горячие парни скачать торрент в хорошем качестве
    Горячие парни смотреть онлайн бесплатно в хорошем качестве


    Вы не можете начинать темы
    Вы не можете отвечать на сообщения
    Вы не можете редактировать свои сообщения
    Вы не можете удалять свои сообщения
    Вы не можете голосовать в опросах
    Вы не можете прикреплять файлы к сообщениям
    Вы можете скачивать файлы