Ссылка на приватное зеркало нашего сайта всего за 1$. Внимание количество ограничено!!!

2 сезон

iTunes

1 сезон

1

iTunes

iTunes

iTunes

1 сезон

RePack

30

ИГРА 18+

pack

ВАЖНО

!!Акция!!

Alien_RageХит недели

RePack

MK11
pack

Забери бонус

RePack

jed

!!Акция!!

Alien_Rage

RePack

fifa19

RePack

Assassins Creed: Odyssey

RePack

NEED FOR SPEED™ PAYBACK

4 сезон

9 сезон

Бесстыжие 9 сезон

Все сериалы

все сериалы на PB.wtf

RePack

FAR CRY 5
  

Тещины блины Сезон: 1 / Серии: 1-4 из 4 (Алексей Праздников) [2013 г., Мелодрама, SATRip] pb.wtf

Тещины блины Сезон: 1 через торрент pb.wtf

Размер: 1.97 GB | Добавлен: 6 лет 7 мес. назад | Торрент скачан:158 раз
Скачать  

15-03-2014 14:30 Тещины блины Сезон: 1 Скачать торрент  

Тещины блины Год выпуска: 2013
Страна: Россия
Жанр: Мелодрама,
Продолжительность: 00:45:00 серия

Режиссер: Алексей Праздников

В ролях: Наталья Солдатова, Яков Шамшин, Оксана Сташенко, Александр Ратников, Антон Юрьев,

Описание: Света и Дима живут в чудесном городке Блинове, что на Золотом кольце. Им около тридцати, у них есть семилетний сын Санька и полугодовалая дочка Леночка. Света работает вместе с мамой Ольгой Николаевной – рисует приволжские орнаменты для чашек-плошек. Дима – талантливый повар. Но он в очередной раз остался без работы из-за своих принципов. Из-за этого теща зятя не жалует: не такого мужа-романтика хотела она для своей дочери. Да и Светлана уже устала от безденежья и проблем. И тут она выигрывает в лотерею…

Качество: SATRip
Формат: AVI
Видео кодек: XviD
Аудио кодек: MP3
Видео: MPEG4, XviD, 704x400 (16:9), 25.000 fps, 1 493 Kbps (0.212 bit/pixel)
Аудио: MP3 , 48.0 KHz, 2 ch, 128 Kbps, CBR
скриншот   скриншот   скриншот   скриншот   скриншот   скриншот   скриншот   скриншот  

Код:

Формат                           : AVI
Формат/Информация                : Audio Video Interleave
Размер файла                     : 525 Мбайт
Продолжительность                : 45 м.
Общий поток                      : 1631 Кбит/сек
Программа кодирования            : VirtualDubMod 1.5.10.2 (build 2540/release)
Библиотека кодирования           : VirtualDub build 32507/release

Видео
Идентификатор                    : 0
Формат                           : MPEG-4 Visual
Профиль формата                  : Advanced Simple@L5
Параметр BVOP формата            : 2
Параметр QPel формата            : Нет
Параметр GMC формата             : Без точки перехода
Параметр матрицы формата         : Default (MPEG)
Идентификатор кодека             : XVID
Идентификатор кодека/Подсказка   : XviD
Продолжительность                : 45 м.
Битрейт                          : 1493 Кбит/сек
Ширина                           : 704 пикс.
Высота                           : 400 пикс.
Соотношение сторон               : 16:9
Частота кадров                   : 25,000 кадр/сек
Цветовое пространство            : YUV
Подвыборка цветности             : 4:2:0
Битовая глубина                  : 8 бит
Тип развёртки                    : Прогрессивная
Метод сжатия                     : С потерями
Бит/(Пиксели*Кадры)              : 0.212
Размер потока                    : 481 Мбайт (92%)
Библиотека кодирования           : XviD 64

Аудио
Идентификатор                    : 1
Формат                           : MPEG Audio
Версия формата                   : Version 1
Профиль формата                  : Layer 3
Режим                            : Joint stereo
Расширение режима                : MS Stereo
Идентификатор кодека             : 55
Идентификатор кодека/Подсказка   : MP3
Продолжительность                : 45 м.
Вид битрейта                     : Постоянный
Битрейт                          : 128 Кбит/сек
Канал(ы)                         : 2 канала(ов)
Частота                          : 48,0 КГц
Метод сжатия                     : С потерями
Размер потока                    : 41,2 Мбайт (8%)
Выравнивание                     : Соединение по промежуткам
Продолжительность промежутка     : 40  мс. (1,00 видеокадр)
Время предзагрузки промежутка    : 504 ms


pb.wtf



Скачать Тещины блины Сезон: 1 через торрент http://pic.kartinco.top/images/6/qfkpn.jpg Скачать фильм Тещины блины Сезон: 1 через торрент бесплантно в хорошем качестве Описание: Света и Дима живут в чудесном городке Блинове, что на Золотом кольце. Им около тридцати, у них есть семилетний сын Санька и ... 8.3 10 7
Info! Золотая раздача, скачанное не засчитывается.
Торрент: Зарегистрирован [2014-03-15 14:30] · скачан: 158 раз
Статус: √ проверено
Размер: 1.97 GB
Как cкачать? Как скачать Тещины блины Сезон: 1 через торрент | qTorrent

28-11-2019 20:33  

Отключить всю рекламу на сайте

    Дорогой пользователь! Огромная просьба, поблагодарите релизера, оцените раздачу и оставьте свои комментарий, если Вы скачали Тещины блины Сезон: 1 через торрент бесплатно! Внесите свою лепту в развитие PiratBit!
    Комментировать посты могут только пользователи прошедшие не сложную регистрацию
    Показать сообщения:    

    Тещины блины Сезон: 1 через торрент
    Скачать бесплатно Тещины блины Сезон: 1
    Тещины блины Сезон: 1 скачать торрент
    Тещины блины Сезон: 1 смотреть онлайн
    Cкачать фильм Тещины блины Сезон: 1 бесплатно
    Тещины блины Сезон: 1 скачать торрент в хорошем качестве
    Тещины блины Сезон: 1 смотреть онлайн бесплатно в хорошем качестве


    Вы не можете начинать темы
    Вы не можете отвечать на сообщения
    Вы не можете редактировать свои сообщения
    Вы не можете удалять свои сообщения
    Вы не можете голосовать в опросах
    Вы не можете прикреплять файлы к сообщениям
    Вы можете скачивать файлы